Tags
Language
Tags

BBC - Sex and Sensibility: The Allure of Art Nouveau (2012)

Posted By: Tutorial
1080p (FullHD) / HDTV
BBC - Sex and Sensibility: The Allure of Art Nouveau (2012)

BBC - Sex and Sensibility: The Allure of Art Nouveau (2012)
HDTV | 1920 x 1080 | .MKV/HEVC @ 2943 Kbps | 2 h 55 min | 3.76 GB
Audio: English AAC 125 Kbps, 2 channels | Subs: English
Genre: Documentary, Arts

Series which looks at how the Art Nouveau movement flourished in the burgeoning cities of Europe at the end of the 19th century.

Part 1: Paris
The delicious objects of Parisian Art Nouveau are explored by cultural correspondent Stephen Smith. Uncovering how the luscious decorative style first erupted into the cityscape, Stephen delves into the city's Bohemian past to learn how some of the 19th century's most glamorous and controversial figures inspired this extraordinary movement Revealing the story behind Alphonse Mucha's sensual posters of actress Sarah Bernhardt, looking at the exquisite jewellery designer Renee Lalique and visiting iconic art nouveau locations such the famous Maxim's restaurant, the programme builds a picture of fin-de-siecle Paris.. But Smith also reveals that the style is more than just veneer deep. Looking further into the work of glass maker Emile Galle and architect Hector Guimard, he sees how some of art nouveau's stars risked their reputation to give meaning and purpose to work they thought could affect social change

Part 2: British Cities
London didn’t embrace the erotic curves of Art Nouveau quite as rapturously as Paris. But Oscar Wilde did, especially the drawings of daring young Aubrey Beardsley. Then Wilde was carted off to jail for “gross indecency”, leaving both their reputations in tatters and straitlaced Victorians with a deep mistrust for this continental smut masquerading as art. Stephen Smith examines the influence art nouveau had on British art and design in the early part of the 20th century. He explores the work of illustrator Aubrey Beardsley and architect and designer Charles Rennie Mackintosh, as well as delving into the careers of less celebrated figures, including Mackintosh's wife Margaret MacDonald and artist and craftswoman Mary Watts. Smith also considers how entrepreneur Arthur Liberty helped popularise the art nouveau style through his London department store.

Part 3: Vienna
In a story that combines scandal and revolution, cultural correspondent Stephen Smith explores how Vienna's artists rebelled against the establishment in the late 19th century and brought their own highly-sexed version of Art Nouveau to the banks of the Danube. Looking at the eye-watering work of Gustav Klimt, Smith discovers that Viennese 'Jugenstil' was more than just a decorative delight, but saw artists struggle to bring social meaning to the new style. Revealing the design genius of Josef Hoffman, the graphic work of Koloman Moser and the emergence of the enfant terrible Egon Schiele, Smith unpacks the stories behind a style that burned brightly but briefly at the fin de siecle

General
Unique ID : 127193040033318524853965493265082108541 (0x5FB07D0B2D0A3060474863BEAFF44A7D)
Complete name : BBC.Sex.and.Sensibility.The.Allure.of.Art.Nouveau.mkv
Format : Matroska
Format version : Version 4 / Version 2
File size : 3.76 GiB
Duration : 2 h 55 min
Overall bit rate : 3 070 kb/s
Movie name : Sex and Sensibility: The Allure of Art Nouveau [MVGroup]
Encoded date : UTC 2020-10-23 00:41:32
Writing application : mkvmerge v51.0.0 ('I Wish') 64-bit
Writing library : libebml v1.4.0 + libmatroska v1.6.2

Video
ID : 1
Format : HEVC
Format/Info : High Efficiency Video Coding
Format profile : Main@L4@Main
Codec ID : V_MPEGH/ISO/HEVC
Duration : 2 h 55 min
Bit rate : 2 943 kb/s
Width : 1 920 pixels
Height : 1 080 pixels
Display aspect ratio : 16:9
Frame rate mode : Constant
Frame rate : 25.000 FPS
Color space : YUV
Chroma subsampling : 4:2:0
Bit depth : 8 bits
Bits/(Pixel*Frame) : 0.057
Stream size : 3.60 GiB (96%)
Writing library : x265 3.3+2-gbe2d82093:[Windows][MSVC 1924][64 bit] 8bit
Encoding settings : cpuid=1111039 / frame-threads=3 / numa-pools=12 / wpp / no-pmode / no-pme / no-psnr / no-ssim / log-level=2 / input-csp=1 / input-res=1920x1080 / interlace=0 / total-frames=88175 / level-idc=0 / high-tier=1 / uhd-bd=0 / ref=3 / no-allow-non-conformance / no-repeat-headers / annexb / no-aud / no-hrd / info / hash=0 / no-temporal-layers / no-open-gop / min-keyint=25 / keyint=250 / gop-lookahead=12 / bframes=6 / b-adapt=2 / b-pyramid / bframe-bias=0 / rc-lookahead=20 / lookahead-slices=6 / scenecut=40 / hist-scenecut=0 / radl=0 / no-splice / no-intra-refresh / ctu=64 / min-cu-size=8 / no-rect / no-amp / max-tu-size=32 / tu-inter-depth=1 / tu-intra-depth=1 / limit-tu=0 / rdoq-level=0 / dynamic-rd=0.00 / no-ssim-rd / signhide / no-tskip / nr-intra=0 / nr-inter=0 / no-constrained-intra / strong-intra-smoothing / max-merge=3 / limit-refs=1 / no-limit-modes / me=2 / subme=2 / merange=48 / temporal-mvp / no-frame-dup / hme / Level / merange / L0,L1,L2=16,32,48 / weightp / weightb / no-analyze-src-pics / deblock=0:0 / sao / no-sao-non-deblock / rd=3 / selective-sao=4 / early-skip / rskip / no-fast-intra / no-tskip-fast / no-cu-lossless / b-intra / no-splitrd-skip / rdpenalty=0 / psy-rd=2.00 / psy-rdoq=0.00 / no-rd-refine / no-lossless / cbqpoffs=0 / crqpoffs=0 / rc=crf / crf=21.0 / qcomp=0.60 / qpstep=4 / stats-write=0 / stats-read=0 / ipratio=1.40 / pbratio=1.30 / aq-mode=4 / aq-strength=1.00 / cutree / zone-count=0 / no-strict-cbr / qg-size=32 / no-rc-grain / qpmax=69 / qpmin=0 / no-const-vbv / sar=1 / overscan=0 / videoformat=5 / range=0 / colorprim=1 / transfer=1 / colormatrix=1 / chromaloc=0 / display-window=0 / cll=0,0 / min-luma=0 / max-luma=255 / log2-max-poc-lsb=8 / vui-timing-info / vui-hrd-info / slices=1 / no-opt-qp-pps / no-opt-ref-list-length-pps / no-multi-pass-opt-rps / scenecut-bias=0.05 / hist-threshold=0.01 / no-opt-cu-delta-qp / no-aq-motion / no-hdr10 / no-hdr10-opt / no-dhdr10-opt / no-idr-recovery-sei / analysis-reuse-level=0 / analysis-save-reuse-level=0 / analysis-load-reuse-level=0 / scale-factor=0 / refine-intra=0 / refine-inter=0 / refine-mv=1 / refine-ctu-distortion=0 / no-limit-sao / ctu-info=0 / no-lowpass-dct / refine-analysis-type=0 / copy-pic=1 / max-ausize-factor=1.0 / no-dynamic-refine / no-single-sei / no-hevc-aq / no-svt / no-field / qp-adaptation-range=1.00 / no-scenecut-aware-qpconformance-window-offsets / right=0 / bottom=0
Language : English
Default : Yes
Forced : No
Color range : Limited
Color primaries : BT.709
Transfer characteristics : BT.709
Matrix coefficients : BT.709

Audio
ID : 2
Format : AAC
Format/Info : Advanced Audio Codec
Format profile : LC
Codec ID : A_AAC
Duration : 2 h 55 min
Bit rate : 125 kb/s
Channel(s) : 2 channels
Channel positions : Front: L R
Sampling rate : 48.0 kHz
Frame rate : 46.875 FPS (1024 spf)
Compression mode : Lossy
Delay relative to video : 9 ms
Stream size : 157 MiB (4%)
Language : English
Default : Yes
Forced : No

Text
ID : 3
Format : UTF-8
Codec ID : S_TEXT/UTF8
Codec ID/Info : UTF-8 Plain Text
Duration : 2 h 54 min
Bit rate : 89 b/s
Count of elements : 2541
Stream size : 115 KiB (0%)
Language : English
Default : No
Forced : No

Menu
00:00:00.000 : en:Paris
00:58:47.000 : en:British Cities
01:57:16.000 : en:Vienna
Screenshots

BBC - Sex and Sensibility: The Allure of Art Nouveau (2012)

BBC - Sex and Sensibility: The Allure of Art Nouveau (2012)

BBC - Sex and Sensibility: The Allure of Art Nouveau (2012)

BBC - Sex and Sensibility: The Allure of Art Nouveau (2012)

BBC - Sex and Sensibility: The Allure of Art Nouveau (2012)

Welcome to my blog - daily update!

BBC - Sex and Sensibility: The Allure of Art Nouveau (2012)