Tags
Language
Tags

Sex, Lies, and Videotape (1989) [Criterion Collection]

Posted By:
SD / DVDRip IMDb
Sex, Lies, and Videotape (1989) [Criterion Collection]

Sex, Lies, and Videotape (1989) [Criterion Collection, Spine #938]
DVDRip | MKV | AVC 720x460, ~ 1.6 Mbps | 1hr 40mn | 1.42 GB
English: Dolby AC3, 6 ch, 448 kbps
Subtitles: English
Genre: Drama

Criterion.com


Director: Steven Soderbergh
Writers: Steven Soderbergh
Stars: James Spader, Andie MacDowell, Peter Gallagher

With his provocative feature debut, twenty-six-year-old Steven Soderbergh trained his focus on the complexities of human intimacy and deception in the modern age. Housewife Ann (Andie MacDowell) feels distant from her lawyer husband, John (Peter Gallagher), who is sleeping with her sister, Cynthia (Laura San Giacomo). When John’s old friend Graham (a magnetic, Cannes-award-winning James Spader) comes to town, Ann is drawn to the soft-spoken outsider, eventually uncovering his startling private obsession: videotaping women as they confess their deepest desires. A piercingly intelligent and flawlessly performed chamber piece, in which the video camera becomes a charged metaphor for the characters’ isolation, the Palme d’Or–winning sex, lies, and videotape changed the landscape of American film, helping pave the way for the thriving independent scene of the 1990s.




General
Unique ID : 174994652676026541836037532864474485407 (0x83A6BE81E6CBF55F8119310D1317929F)
Complete name : F:\SexLiesAndVideotape.89.Cr.Dr\SexLiesAndVideotape.89.Cr.Dr.mkv
Format : Matroska
Format version : Version 4 / Version 2
File size : 1.42 GiB
Duration : 1 h 40 min
Overall bit rate : 2 037 kb/s
Movie name : Release RSU75
Encoded date : UTC 2018-09-24 03:50:00
Writing application : mkvmerge v6.6.0 ('The Edge Of The In Between') built on Dec 1 2013 17:55:00
Writing library : libebml v1.3.0 + libmatroska v1.4.1

Video
ID : 1
Format : AVC
Format/Info : Advanced Video Codec
Format profile : High@L4.1
Format settings : CABAC / 4 Ref Frames
Format settings, CABAC : Yes
Format settings, ReFrames : 4 frames
Codec ID : V_MPEG4/ISO/AVC
Duration : 1 h 40 min
Bit rate : 1 600 kb/s
Width : 720 pixels
Height : 460 pixels
Display aspect ratio : 1.85:1
Frame rate mode : Constant
Frame rate : 23.976 (23976/1000) FPS
Color space : YUV
Chroma subsampling : 4:2:0
Bit depth : 8 bits
Scan type : Progressive
Bits/(Pixel*Frame) : 0.201
Stream size : 1.08 GiB (76%)
Writing library : x264 core 148 r2643 5c65704
Encoding settings : cabac=1 / ref=4 / deblock=1:0:0 / analyse=0x3:0x113 / me=umh / subme=8 / psy=1 / psy_rd=1.00:0.00 / mixed_ref=1 / me_range=24 / chroma_me=1 / trellis=1 / 8x8dct=1 / cqm=0 / deadzone=21,11 / fast_pskip=1 / chroma_qp_offset=-2 / threads=3 / lookahead_threads=1 / sliced_threads=0 / nr=0 / decimate=1 / interlaced=0 / bluray_compat=0 / constrained_intra=0 / bframes=3 / b_pyramid=0 / b_adapt=2 / b_bias=0 / direct=3 / weightb=1 / open_gop=0 / weightp=2 / keyint=250 / keyint_min=25 / scenecut=40 / intra_refresh=0 / rc_lookahead=40 / rc=abr / mbtree=1 / bitrate=1600 / ratetol=1.0 / qcomp=0.60 / qpmin=10 / qpmax=51 / qpstep=4 / ip_ratio=1.41 / aq=1:1.00
Language : English
Default : Yes
Forced : No

Audio
ID : 2
Format : AC-3
Format/Info : Audio Coding 3
Commercial name : Dolby Digital
Codec ID : A_AC3
Duration : 1 h 40 min
Bit rate mode : Constant
Bit rate : 448 kb/s
Channel(s) : 6 channels
Channel layout : L R C LFE Ls Rs
Sampling rate : 48.0 kHz
Frame rate : 31.250 FPS (1536 SPF)
Bit depth : 16 bits
Compression mode : Lossy
Stream size : 321 MiB (22%)
Language : English
Service kind : Complete Main
Default : Yes
Forced : No

Text
ID : 3
Format : VobSub
Muxing mode : zlib
Codec ID : S_VOBSUB
Codec ID/Info : Picture based subtitle format used on DVDs
Language : English
Default : Yes
Forced : No

Menu
00:00:00.000 : en:Chapter 01
00:05:28.961 : en:Chapter 02
00:11:04.664 : en:Chapter 03
00:14:56.528 : en:Chapter 04
00:20:40.205 : en:Chapter 05
00:22:50.502 : en:Chapter 06
00:30:25.290 : en:Chapter 07
00:34:05.009 : en:Chapter 08
00:40:20.885 : en:Chapter 09
00:49:59.796 : en:Chapter 10
00:54:01.705 : en:Chapter 11
00:57:02.719 : en:Chapter 12
01:06:39.795 : en:Chapter 13
01:09:12.114 : en:Chapter 14
01:17:07.422 : en:Chapter 15
01:34:05.439 : en:Chapter 16
01:37:38.319 : en:Chapter 17




Screenshots (click to enlarge to original size):

Sex, Lies, and Videotape (1989) [Criterion Collection]

Sex, Lies, and Videotape (1989) [Criterion Collection]

Sex, Lies, and Videotape (1989) [Criterion Collection]


Sex, Lies, and Videotape (1989) [Criterion Collection]




–––––––––––––––––––––––––––––––––––––––-