Subcategories

Shades of Blue S01E12 (2016)

Posted By: JohnSmith
Shades of Blue S01E12 (2016)

Shades of Blue S01E12 (2016)
HDTV 720p | MKV / AVC@2414 kb/s | 1280x720 | 41mn | 845 MB | English: AC3, 384 kb/s (6 ch)
Genre: Crime | Drama

Detective Harlee Santos (Jennifer Lopez) is a single mother from New York City, New York. She joins the FBI's anti-corruption task force, whilst dealing with her own financial problems by bribing officers in order to afford for her daughter.




General
Unique ID : 25820299049482597358164932474694131675 (0x136CCF07B3355F84646E1B24C909DFDB)
Complete name : D:\Downloads\Shades.of.Blue.S01E12.720p.HDTV.x264-AVS[rarbg]\Shades.of.Blue.S01E12.720p.HDTV.x264-AVS.mkv
Format : Matroska
Format version : Version 2
File size : 845 MiB
Duration : 41mn 23s
Overall bit rate : 2 855 Kbps
Writing application : mkv 2.1.1 AVS
Writing library : mkv 2.1.1 AVS

Video
ID : 1
Format : AVC
Format/Info : Advanced Video Codec
Format profile : High@L4.1
Format settings, CABAC : Yes
Format settings, ReFrames : 5 frames
Codec ID : V_MPEG4/ISO/AVC
Duration : 41mn 23s
Bit rate : 2 414 Kbps
Width : 1 280 pixels
Height : 720 pixels
Display aspect ratio : 16:9
Frame rate mode : Constant
Frame rate : 23.976 fps
Color space : YUV
Chroma subsampling : 4:2:0
Bit depth : 8 bits
Scan type : Progressive
Bits/(Pixel*Frame) : 0.109
Stream size : 715 MiB (85%)
Writing library : x264 core 148 r2665 a01e339
Encoding settings : cabac=1 / ref=5 / deblock=1:0:0 / analyse=0x3:0x113 / me=umh / subme=8 / psy=1 / psy_rd=1.00:0.00 / mixed_ref=1 / me_range=16 / chroma_me=1 / trellis=1 / 8x8dct=1 / cqm=0 / deadzone=21,11 / fast_pskip=1 / chroma_qp_offset=-2 / threads=22 / lookahead_threads=3 / sliced_threads=0 / nr=0 / decimate=1 / interlaced=0 / bluray_compat=0 / constrained_intra=0 / bframes=3 / b_pyramid=2 / b_adapt=2 / b_bias=0 / direct=3 / weightb=1 / open_gop=0 / weightp=2 / keyint=250 / keyint_min=23 / scenecut=40 / intra_refresh=0 / rc_lookahead=50 / rc=crf / mbtree=1 / crf=18.0 / qcomp=0.60 / qpmin=0 / qpmax=69 / qpstep=4 / ip_ratio=1.40 / aq=1:1.00
Language : English
Default : Yes
Forced : No
Color range : Limited
Matrix coefficients : BT.709

Audio
ID : 2
Format : AC-3
Format/Info : Audio Coding 3
Mode extension : CM (complete main)
Format settings, Endianness : Big
Codec ID : A_AC3
Duration : 41mn 23s
Bit rate mode : Constant
Bit rate : 384 Kbps
Channel(s) : 6 channels
Channel positions : Front: L C R, Side: L R, LFE
Sampling rate : 48.0 KHz
Compression mode : Lossy
Stream size : 114 MiB (13%)
Default : Yes
Forced : No


Screenshots

Shades of Blue S01E12 (2016)

Shades of Blue S01E12 (2016)

Shades of Blue S01E12 (2016)