Shakespeare Behind Bars (2005)

Posted By: vivid23
Shakespeare Behind Bars (2005)

Shakespeare Behind Bars (2005)
DVDrip | 608x336 | AVI/XviD @ 946 Kbps | 92mn | Audio: English MP3 128 kbps, 2 channels | Subs: None | 700 MB
Genre: Documentary

Twenty male inmates in a Kentucky prison form an unlikely Shakespearean acting troupe.

More info

Video
ID : 0
Format : MPEG-4 Visual
Format profile : Advanced Simple@L5
Format settings, BVOP : Yes
Format settings, QPel : No
Format settings, GMC : No warppoints
Format settings, Matrix : Custom
Codec ID : XVID
Codec ID/Hint : XviD
Duration : 1h 32mn
Bit rate : 946 Kbps
Width : 608 pixels
Height : 336 pixels
Display aspect ratio : 16:9
Frame rate : 25.000 fps
Color space : YUV
Chroma subsampling : 4:2:0
Bit depth : 8 bits
Scan type : Progressive
Compression mode : Lossy
Bits/(Pixel*Frame) : 0.185
Stream size : 624 MiB (89%)
Writing library : XviD 1.2.0.dev47 (UTC 2006-11-01)

Audio
ID : 1
Format : MPEG Audio
Format version : Version 1
Format profile : Layer 3
Mode : Joint stereo
Mode extension : MS Stereo
Codec ID : 55
Codec ID/Hint : MP3
Duration : 1h 32mn
Bit rate mode : Variable
Bit rate : 103 Kbps
Nominal bit rate : 128 Kbps
Channel(s) : 2 channels
Sampling rate : 48.0 KHz
Compression mode : Lossy
Stream size : 67.8 MiB (10%)
Alignment : Aligned on interleaves
Interleave, duration : 24 ms (0.60 video frame)
Interleave, preload duration : 179 ms
Writing library : LAME3.97
Encoding settings : -m j -V 4 -q 2 -lowpass 17 –abr 128
Language : English


Shakespeare Behind Bars (2005)

Shakespeare Behind Bars (2005)


Feel free to contact me when links are dead