Shut Up Little Man! An Audio Misadventure (2011)

Posted By: notbanned
Shut Up Little Man! An Audio Misadventure (2011)

Shut Up Little Man! An Audio Misadventure (2011)
WEB-DL | 960x720 | .MKV/AVC @ 4124 Kbps | 1h 29min | 2.83 GiB
Audio: English AC2 384 kbps, 6 channels | Subs: English
Genre: Documentary | Comedy | Drama

In 1987 San Francisco, Eddie Lee Sausage and Mitch Deprey began recording the squabbles of their stranger than fiction neighbors, the bigoted Raymond Huffman and the out and proud Peter Haskett. The recital of the pair's outrageous reality quickly took on a life of its own. This darkly funny documentary chronicles the history of Raymond and Peter, as well as what happened to former slackers Eddie and Mitch, who paint a picture of not only their outrageous neighbors, but also of San Francisco's Lower Haight neighborhood in the late 1980s. Interviews with others who were influenced by the recordings document their broad influence on a variety of artists, near and far.
More info


General
Unique ID : 217554597581342236795816002198962064306 (0xA3AB7DCC87361ABEB0C7132A221E4BB2)
Complete name : Shut.Up.Little.Man.An.Audio.Misadventure.720p.mkv
Format : Matroska
Format version : Version 4 / Version 2
File size : 2.83 GiB
Duration : 1 h 29 min
Overall bit rate : 4 510 kb/s

Video
ID : 1
Format : AVC
Format/Info : Advanced Video Codec
Format profile : Main@L3.1
Format settings, CABAC : No
Format settings, ReFrames : 2 frames
Codec ID : V_MPEG4/ISO/AVC
Duration : 1 h 29 min
Bit rate : 4 124 kb/s
Width : 960 pixels
Height : 720 pixels
Display aspect ratio : 16:9
Frame rate mode : Constant
Frame rate : 25.000 FPS
Color space : YUV
Chroma subsampling : 4:2:0
Bit depth : 8 bits
Scan type : Progressive
Bits/(Pixel*Frame) : 0.239
Stream size : 2.59 GiB (91%)
Language : English
Default : Yes
Forced : No
Color range : Limited
Color primaries : BT.709
Transfer characteristics : BT.709
Matrix coefficients : BT.709

Audio
ID : 2
Format : AC-3
Format/Info : Audio Coding 3
Format settings, Endianness : Big
Codec ID : A_AC3
Duration : 1 h 29 min
Bit rate mode : Constant
Bit rate : 384 kb/s
Channel(s) : 6 channels
Channel positions : Front: L C R, Side: L R, LFE
Sampling rate : 48.0 kHz
Frame rate : 31.250 FPS (1536 spf)
Bit depth : 16 bits
Compression mode : Lossy
Stream size : 246 MiB (9%)
Language : English
Service kind : Complete Main
Default : Yes
Forced : No

Text
ID : 3
Format : UTF-8
Codec ID : S_TEXT/UTF8
Codec ID/Info : UTF-8 Plain Text
Duration : 1 h 29 min
Bit rate : 160 b/s
Count of elements : 1981
Stream size : 105 KiB (0%)
Language : English
Default : Yes
Forced : No

Menu
00:00:00.000 : en:1
00:10:00.000 : en:2
00:20:00.000 : en:3
00:30:00.000 : en:4
00:40:00.000 : en:5
00:50:00.000 : en:6
01:00:00.000 : en:7
01:10:00.000 : en:8
01:20:00.000 : en:9


Screenshots:

Shut Up Little Man! An Audio Misadventure (2011)

Shut Up Little Man! An Audio Misadventure (2011)

Shut Up Little Man! An Audio Misadventure (2011)

Shut Up Little Man! An Audio Misadventure (2011)