Sicario 2 (2018)

Posted By: Tavaz
SD / BDRip IMDb
Sicario 2 (2018)

Sicario 2 (2018)
BDRip | AVI | 720x304 | German | MP4V-ES @ 1649 kbps | AC-3 @ 384 kbps | 2 h 2 min | 1.74 GiB
Genre: Action, Crime, Drama, Thriller

Zwei Jahre nach ihrem letzten Einsatz sind FBI-Agent Matt Graver und Auftragskiller Alejandro erneut an der amerikanisch-mexikanischen Grenze unterwegs. Alejandro soll für Matt einen Krieg zwischen den verschiedenen Drogenkartellen vom Zaun brechen und dafür die Tochter des Kartellbosses und Terroristenschleusers Carlos Reyes entführen. Allerdings hat Alejandro noch eine private Rechnung mit Reyes offen.

cd-sicario2.avi (1.7 GB)
sample.avi (8.0 MB)



General
Complete name : ./Sicario.2.2018.German.BDRip.AC3.5.1.DUBBED.XViD-CiNEDOME/cd-sicario2.avi
Format : AVI
Format/Info : Audio Video Interleave
Format profile : OpenDML
Format settings : rec
File size : 1.74 GiB
Duration : 2 h 2 min
Overall bit rate : 2 039 kb/s
Writing application : AVI-Mux GUI 1.17.8.3, Feb 16 201019:42:50

Video
ID : 0
Format : MPEG-4 Visual
Format profile : Advanced Simple@L5
Format settings : BVOP2
Format settings, BVOP : 2
Format settings, QPel : No
Format settings, GMC : No warppoints
Format settings, Matrix : Default (MPEG)
Codec ID : XVID
Codec ID/Hint : XviD
Duration : 2 h 2 min
Bit rate : 1 650 kb/s
Width : 720 pixels
Height : 304 pixels
Display aspect ratio : 2.35:1
Frame rate : 23.976 (24000/1001) FPS
Color space : YUV
Chroma subsampling : 4:2:0
Bit depth : 8 bits
Scan type : Progressive
Compression mode : Lossy
Bits/(Pixel*Frame) : 0.314
Stream size : 1.41 GiB (81%)
Writing library : XviD 67

Audio
ID : 1
Format : AC-3
Format/Info : Audio Coding 3
Format settings, Endianness : Big
Codec ID : 2000
Duration : 2 h 2 min
Bit rate mode : Constant
Bit rate : 384 kb/s
Channel(s) : 6 channels
Channel positions : Front: L C R, Side: L R, LFE
Sampling rate : 48.0 kHz
Frame rate : 31.250 FPS (1536 SPF)
Bit depth : 16 bits
Compression mode : Lossy
Stream size : 336 MiB (19%)
Alignment : Aligned on interleaves
Interleave, duration : 64 ms (1.53 video frames)
Interleave, preload duration : 192 ms
Title : pso-sicario2_bd.720p - [0] German_new
Service kind : Complete Main





Sicario 2 (2018)


Sicario 2 (2018)


Sicario 2 (2018)


Sicario 2 (2018)


Sicario 2 (2018)