Sicario 2 (2018)

Posted By: Tavaz
720p (HD) / BDRip IMDb
Sicario 2 (2018)

Sicario 2 (2018)
BDRip | MKV | 1280x536 | German | H264 @ 1570 kbps | AC-3 @ 640 kbps | 2 h 3 min | 1.90 GiB
Subtitles: German
Genre: Action, Crime, Drama, Thriller

Zwei Jahre nach ihrem letzten Einsatz sind FBI-Agent Matt Graver und Auftragskiller Alejandro erneut an der amerikanisch-mexikanischen Grenze unterwegs. Alejandro soll für Matt einen Krieg zwischen den verschiedenen Drogenkartellen vom Zaun brechen und dafür die Tochter des Kartellbosses und Terroristenschleusers Carlos Reyes entführen. Allerdings hat Alejandro noch eine private Rechnung mit Reyes offen.

Sicario.2.Soldado.2018.German.720p.BluRay.x264-ENCOUNTERS.mkv (1.9 GB)



General
Unique ID : 83073558660697121091115309039359396420 (0x3E7F62AAF5CB526BFBEA69FB8D948A44)
Complete name : ./Sicario.2.Soldado.2018.German.720p.BluRay.x264-ENCOUNTERS/Sicario.2.Soldado.2018.German.720p.BluRay.x264-ENCOUNTERS.mkv
Format : Matroska
Format version : Version 4 / Version 2
File size : 1.90 GiB
Duration : 2 h 3 min
Overall bit rate : 2 212 kb/s
Encoded date : UTC 2018-11-23 07:49:38
Writing application : mkvmerge v19.0.0 ('Brave Captain') 64-bit
Writing library : libebml v1.3.5 + libmatroska v1.4.8

Video
ID : 1
Format : AVC
Format/Info : Advanced Video Codec
Format profile : High@L4.1
Format settings : CABAC / 5 Ref Frames
Format settings, CABAC : Yes
Format settings, RefFrames : 5 frames
Codec ID : V_MPEG4/ISO/AVC
Duration : 2 h 3 min
Bit rate : 1 570 kb/s
Width : 1 280 pixels
Height : 536 pixels
Display aspect ratio : 2.40:1
Frame rate mode : Constant
Frame rate : 23.976 (23976/1000) FPS
Original frame rate : 23.976 (24000/1001) FPS
Color space : YUV
Chroma subsampling : 4:2:0
Bit depth : 8 bits
Scan type : Progressive
Bits/(Pixel*Frame) : 0.095
Stream size : 1.35 GiB (71%)
Writing library : x264 core 157 r2935 545de2f
Encoding settings : cabac=1 / ref=5 / deblock=1:-1:-1 / analyse=0x3:0x133 / me=umh / subme=7 / psy=1 / psy_rd=1.00:0.15 / mixed_ref=1 / me_range=16 / chroma_me=1 / trellis=1 / 8x8dct=1 / cqm=0 / deadzone=21,11 / fast_pskip=0 / chroma_qp_offset=-3 / threads=16 / lookahead_threads=2 / sliced_threads=0 / nr=0 / decimate=1 / interlaced=0 / bluray_compat=0 / constrained_intra=0 / bframes=3 / b_pyramid=2 / b_adapt=1 / b_bias=0 / direct=1 / weightb=1 / open_gop=0 / weightp=2 / keyint=250 / keyint_min=23 / scenecut=40 / intra_refresh=0 / rc_lookahead=40 / rc=crf / mbtree=1 / crf=20.0 / qcomp=0.60 / qpmin=0 / qpmax=69 / qpstep=4 / ip_ratio=1.40 / aq=1:1.00
Default : Yes
Forced : No

Audio
ID : 2
Format : AC-3
Format/Info : Audio Coding 3
Format settings, Endianness : Big
Codec ID : A_AC3
Duration : 2 h 3 min
Bit rate mode : Constant
Bit rate : 640 kb/s
Channel(s) : 6 channels
Channel positions : Front: L C R, Side: L R, LFE
Sampling rate : 48.0 kHz
Frame rate : 31.250 FPS (1536 SPF)
Bit depth : 16 bits
Compression mode : Lossy
Stream size : 563 MiB (29%)
Language : German
Service kind : Complete Main
Default : Yes
Forced : No

Text
ID : 3
Format : UTF-8
Codec ID : S_TEXT/UTF8
Codec ID/Info : UTF-8 Plain Text
Duration : 1 h 27 min
Bit rate : 7 b/s
Count of elements : 175
Stream size : 4.80 KiB (0%)
Language : German
Default : Yes
Forced : Yes

Menu
00:00:00.000 : en:00:00:00.000
00:08:52.240 : en:00:08:52.240
00:18:32.445 : en:00:18:32.445
00:29:47.077 : en:00:29:47.077
00:40:25.548 : en:00:40:25.548
00:51:29.920 : en:00:51:29.920
01:01:17.549 : en:01:01:17.549
01:12:22.421 : en:01:12:22.421
01:22:16.640 : en:01:22:16.640
01:35:53.915 : en:01:35:53.915
01:44:17.835 : en:01:44:17.835
01:55:01.520 : en:01:55:01.520





Sicario 2 (2018)


Sicario 2 (2018)


Sicario 2 (2018)


Sicario 2 (2018)


Sicario 2 (2018)