Sicario (2015)

Posted By: Tavaz
1080p (FullHD) / BDRip IMDb
Sicario (2015)

Sicario (2015)
BDRip | MKV | 1920x800 | English | H265 @ 2902 kbps | AC-3 @ 448 kbps | 2 h 1 min | 2.84 GiB
Subtitles: English
Genre: Action, Crime, Drama

An idealistic FBI agent is enlisted by a government task force to aid in the escalating war against drugs at the border area between the U.S. and Mexico.

644d60c0b0df4abd9d6d2582e17db877.mkv (2.8 GB)



General
Complete name : ./644d60c0b0df4abd9d6d2582e17db877.mkv
Format : Matroska
Format version : Version 2
File size : 2.84 GiB
Duration : 2 h 1 min
Overall bit rate : 3 354 kb/s
Encoded date : UTC 2017-12-29 22:29:30
Writing application : DVDFab 10.0.6.6
Writing library : libebml v1.3.4 + libmatroska v1.4.5

Video
ID : 1
Format : HEVC
Format/Info : High Efficiency Video Coding
Format profile : Main 10@L4@High
Codec ID : V_MPEGH/ISO/HEVC
Duration : 2 h 1 min
Bit rate : 2 902 kb/s
Width : 1 920 pixels
Height : 800 pixels
Display aspect ratio : 2.40:1
Frame rate mode : Constant
Frame rate : 23.976 (24000/1001) FPS
Color space : YUV
Chroma subsampling : 4:2:0
Bit depth : 10 bits
Bits/(Pixel*Frame) : 0.079
Stream size : 2.46 GiB (87%)
Default : Yes
Forced : No
Color range : Limited
Color primaries : BT.709
Transfer characteristics : BT.709
Matrix coefficients : BT.709

Audio
ID : 2
Format : AC-3
Format/Info : Audio Coding 3
Format settings, Endianness : Big
Codec ID : A_AC3
Duration : 2 h 1 min
Bit rate mode : Constant
Bit rate : 448 kb/s
Channel(s) : 6 channels
Channel positions : Front: L C R, Side: L R, LFE
Sampling rate : 48.0 kHz
Frame rate : 31.250 FPS (1536 SPF)
Bit depth : 16 bits
Compression mode : Lossy
Stream size : 389 MiB (13%)
Language : English
Service kind : Complete Main
Default : Yes
Forced : No

Text
ID : 3
Format : VobSub
Codec ID : S_VOBSUB
Codec ID/Info : Picture based subtitle format used on DVDs
Duration : 1 h 50 min
Bit rate : 2 371 b/s
Count of elements : 939
Stream size : 1.88 MiB (0%)
Language : English
Default : Yes
Forced : No

Menu
00:00:00.000 : en:Chapter 1
00:07:13.350 : en:Chapter 2
00:12:54.107 : en:Chapter 3
00:20:03.368 : en:Chapter 4
00:25:23.814 : en:Chapter 5
00:32:10.595 : en:Chapter 6
00:39:23.820 : en:Chapter 7
00:46:14.313 : en:Chapter 8
00:53:23.575 : en:Chapter 9
01:01:39.321 : en:Chapter 10
01:10:48.119 : en:Chapter 11
01:18:01.886 : en:Chapter 12
01:30:58.370 : en:Chapter 13
01:36:56.769 : en:Chapter 14
01:47:41.038 : en:Chapter 15
01:54:11.803 : en:Chapter 16





Sicario (2015)


Sicario (2015)


Sicario (2015)


Sicario (2015)


Sicario (2015)