Sicario (2015)

Posted By: NaVi7
Sicario (2015)

Sicario (2015)
BDRip | AVI / XviD@1220 kb/s | 656x272 | 2h 1mn | 1.37 GB | Italian: AC3, 384 kb/s (6 ch) | Subtitles: Italian (forced hardcoded)
BDRip 720p | MKV / AVC@3603 kb/s | 1280x534 | 2h 1mn | 3.78 GB | Italian: DTS, 768 kb/s (6 ch) | Subtitles: Italian (forced, full)
BDRip 1080p | MKV / AVC@8047 kb/s | 1920x800 | 2h 1mn | 8.26 GB | Italian: DTS, 1509 kb/s (6 ch) | Subtitles: Italian (forced, full)
Genre: Action | Crime | Drama | Mystery | Thriller

Una giovane agente dell’FBI prende parte a una operazione segreta della CIA allo scopo di catturare un boss del narcotraffico messicano. Tale operazione metterà a repentaglio le sue convinzioni più profonde e i suoi valori morali.

IMDB - 5 wins & 21 nominations.


General
Complete name : Sicario.2015.iTALiAN.BDRip.XviD-TRL.avi
Format : AVI
Format/Info : Audio Video Interleave
File size : 1.37 GiB
Duration : 2h 1mn
Overall bit rate : 1 613 Kbps
Writing application : Lavf55.19.104
Writing library : VirtualDub build 35491/release

Video
ID : 0
Format : MPEG-4 Visual
Format profile : Advanced Simple@L5
Format settings, BVOP : 1
Format settings, QPel : No
Format settings, GMC : No warppoints
Format settings, Matrix : Default (MPEG)
Codec ID : XVID
Codec ID/Hint : XviD
Duration : 2h 1mn
Bit rate : 1 220 Kbps
Width : 656 pixels
Height : 272 pixels
Display aspect ratio : 2.40:1
Frame rate : 24.000 fps
Original frame rate : 23.976 fps
Color space : YUV
Chroma subsampling : 4:2:0
Bit depth : 8 bits
Scan type : Progressive
Compression mode : Lossy
Bits/(Pixel*Frame) : 0.285
Stream size : 1.03 GiB (76%)
Writing library : XviD 67

Audio
ID : 1
Format : AC-3
Format/Info : Audio Coding 3
Mode extension : CM (complete main)
Format settings, Endianness : Big
Codec ID : 2000
Duration : 2h 1mn
Bit rate mode : Constant
Bit rate : 384 Kbps
Channel(s) : 6 channels
Channel positions : Front: L C R, Side: L R, LFE
Sampling rate : 48.0 KHz
Compression mode : Lossy
Stream size : 333 MiB (24%)
Alignment : Aligned on interleaves
Interleave, duration : 42 ms (1.00 video frame)
Interleave, preload duratio : 512 ms

General
Unique ID : 204876967703166800430943107208815808957 (0x9A21DE63385861A392068344928B91BD)
Complete name : Sicario.2015.iTA.Bluray.720p.x264-TRL.mkv
Format : Matroska
Format version : Version 4 / Version 2
File size : 3.78 GiB
Duration : 2h 1mn
Overall bit rate : 4 460 Kbps
Encoded date : UTC 2016-01-05 16:37:05
Writing application : mkvmerge v8.3.0 ('Over the Horizon') 64bit
Writing library : libebml v1.3.1 + libmatroska v1.4.2
Attachements : F1_T2_Video - .rar
DURATION : 01:51:57.249000000
NUMBER_OF_FRAMES : 993
NUMBER_OF_BYTES : 30489
_STATISTICS_WRITING_APP : mkvmerge v8.3.0 ('Over the Horizon') 64bit
_STATISTICS_WRITING_DATE_UT : 2016-01-05 16:37:05
_STATISTICS_TAGS : BPS DURATION NUMBER_OF_FRAMES NUMBER_OF_BYTES

Video
ID : 1
Format : AVC
Format/Info : Advanced Video Codec
Format profile : High@L4.1
Format settings, CABAC : Yes
Format settings, ReFrames : 5 frames
Codec ID : V_MPEG4/ISO/AVC
Duration : 2h 1mn
Bit rate : 3 603 Kbps
Width : 1 280 pixels
Height : 534 pixels
Display aspect ratio : 2.40:1
Original display aspect rat : 2.40:1
Frame rate mode : Constant
Frame rate : 24.000 fps
Original frame rate : 23.976 fps
Color space : YUV
Chroma subsampling : 4:2:0
Bit depth : 8 bits
Scan type : Progressive
Bits/(Pixel*Frame) : 0.220
Stream size : 3.05 GiB (81%)
Writing library : x264 core 148 r2638 7599210
Language : English
Default : Yes
Forced : No
DURATION : 02:01:13.000000000
NUMBER_OF_FRAMES : 174552
NUMBER_OF_BYTES : 3354075307
_STATISTICS_WRITING_APP : mkvmerge v8.3.0 ('Over the Horizon') 64bit
_STATISTICS_WRITING_DATE_UT : 2016-01-05 16:37:05
_STATISTICS_TAGS : BPS DURATION NUMBER_OF_FRAMES NUMBER_OF_BYTES

Audio
ID : 2
Format : DTS
Format/Info : Digital Theater Systems
Mode : 16
Format settings, Endianness : Big
Codec ID : A_DTS
Duration : 2h 1mn
Bit rate mode : Constant
Bit rate : 768 Kbps
Channel(s) : 6 channels
Channel positions : Front: L C R, Side: L R, LFE
Sampling rate : 48.0 KHz
Bit depth : 24 bits
Compression mode : Lossy
Stream size : 666 MiB (17%)
Language : Italian
Default : Yes
Forced : No

Text #1
ID : 3
Format : UTF-8
Codec ID : S_TEXT/UTF8
Codec ID/Info : UTF-8 Plain Text
Title : FORCED
Language : Italian
Default : Yes
Forced : No

Text #2
ID : 4
Format : UTF-8
Codec ID : S_TEXT/UTF8
Codec ID/Info : UTF-8 Plain Text
Language : Italian
Default : No
Forced : No

Menu
00:00:00.000 : en:00:00:00.000
00:07:13.917 : en:00:07:13.917
00:12:54.333 : en:00:12:54.333
00:20:03.166 : en:00:20:03.166
00:25:23.291 : en:00:25:23.291
00:32:09.666 : en:00:32:09.666
00:39:22.458 : en:00:39:22.458
00:46:12.541 : en:00:46:12.541
00:53:21.374 : en:00:53:21.374
01:01:36.625 : en:01:01:36.625
01:10:44.875 : en:01:10:44.875
01:17:58.208 : en:01:17:58.208
01:30:53.917 : en:01:30:53.917
01:36:51.958 : en:01:36:51.958
01:47:35.583 : en:01:47:35.583
01:54:05.958 : en:01:54:05.958

General
Unique ID : 187072114552948516191296133241323458900 (0x8CBCC75A0BAA1DD7AB5AC798C1611154)
Complete name : Sicario.2015.iTA.Bluray.1080p.x264-TRL.mkv
Format : Matroska
Format version : Version 4 / Version 2
File size : 8.26 GiB
Duration : 2h 1mn
Overall bit rate : 9 750 Kbps
Encoded date : UTC 2016-01-05 16:37:45
Writing application : mkvmerge v8.3.0 ('Over the Horizon') 64bit
Writing library : libebml v1.3.1 + libmatroska v1.4.2
Attachements : F1_T2_Video - .rar
DURATION : 01:51:57.249000000
NUMBER_OF_FRAMES : 993
NUMBER_OF_BYTES : 30489
_STATISTICS_WRITING_APP : mkvmerge v8.3.0 ('Over the Horizon') 64bit
_STATISTICS_WRITING_DATE_UT : 2016-01-05 16:37:45
_STATISTICS_TAGS : BPS DURATION NUMBER_OF_FRAMES NUMBER_OF_BYTES

Video
ID : 1
Format : AVC
Format/Info : Advanced Video Codec
Format profile : High@L4.1
Format settings, CABAC : Yes
Format settings, ReFrames : 5 frames
Codec ID : V_MPEG4/ISO/AVC
Duration : 2h 1mn
Bit rate : 8 047 Kbps
Width : 1 920 pixels
Height : 800 pixels
Display aspect ratio : 2.40:1
Frame rate mode : Constant
Frame rate : 24.000 fps
Original frame rate : 23.976 fps
Color space : YUV
Chroma subsampling : 4:2:0
Bit depth : 8 bits
Scan type : Progressive
Bits/(Pixel*Frame) : 0.218
Stream size : 6.81 GiB (83%)
Writing library : x264 core 148 r2638 7599210
Language : English
Default : Yes
Forced : No
DURATION : 02:01:13.000000000
NUMBER_OF_FRAMES : 174552
NUMBER_OF_BYTES : 7490074940
_STATISTICS_WRITING_APP : mkvmerge v8.3.0 ('Over the Horizon') 64bit
_STATISTICS_WRITING_DATE_UT : 2016-01-05 16:37:45
_STATISTICS_TAGS : BPS DURATION NUMBER_OF_FRAMES NUMBER_OF_BYTES

Audio
ID : 2
Format : DTS
Format/Info : Digital Theater Systems
Mode : 16
Format settings, Endianness : Big
Codec ID : A_DTS
Duration : 2h 1mn
Bit rate mode : Constant
Bit rate : 1 509 Kbps
Channel(s) : 6 channels
Channel positions : Front: L C R, Side: L R, LFE
Sampling rate : 48.0 KHz
Bit depth : 24 bits
Compression mode : Lossy
Stream size : 1.28 GiB (15%)
Language : Italian
Default : Yes
Forced : No

Text #1
ID : 3
Format : UTF-8
Codec ID : S_TEXT/UTF8
Codec ID/Info : UTF-8 Plain Text
Title : FORCED
Language : Italian
Default : Yes
Forced : No

Text #2
ID : 4
Format : UTF-8
Codec ID : S_TEXT/UTF8
Codec ID/Info : UTF-8 Plain Text
Language : Italian
Default : No
Forced : No

Menu
00:00:00.000 : en:00:00:00.000
00:07:13.917 : en:00:07:13.917
00:12:54.333 : en:00:12:54.333
00:20:03.166 : en:00:20:03.166
00:25:23.291 : en:00:25:23.291
00:32:09.666 : en:00:32:09.666
00:39:22.458 : en:00:39:22.458
00:46:12.541 : en:00:46:12.541
00:53:21.374 : en:00:53:21.374
01:01:36.625 : en:01:01:36.625
01:10:44.875 : en:01:10:44.875
01:17:58.208 : en:01:17:58.208
01:30:53.917 : en:01:30:53.917
01:36:51.958 : en:01:36:51.958
01:47:35.583 : en:01:47:35.583
01:54:05.958 : en:01:54:05.958


screenshots BDRip:

Sicario (2015)

Sicario (2015)

Sicario (2015)


screenshots BDRip 720p:

Sicario (2015)

Sicario (2015)

Sicario (2015)


screenshots BDRip 1080p:

Sicario (2015)

Sicario (2015)

Sicario (2015)



BDRip

Single Link
http://www.nitroflare.com/view/60BFF2D419D2166

400 MB Links
http://www.nitroflare.com/view/7F023757E9876AC/Sicario.2015.iTALiAN.BDRip.XviD-TRL.part1.rar
http://www.nitroflare.com/view/8144FC2DC35AEF6/Sicario.2015.iTALiAN.BDRip.XviD-TRL.part2.rar
http://www.nitroflare.com/view/CDBC4FF68DB4FA8/Sicario.2015.iTALiAN.BDRip.XviD-TRL.part3.rar
http://www.nitroflare.com/view/1152DD6BBD28AFF/Sicario.2015.iTALiAN.BDRip.XviD-TRL.part4.rar

BDRip 720p

Single Link
http://www.nitroflare.com/view/0FA009E8EE6CA84

900 MB Links
http://www.nitroflare.com/view/7FEB52152C1620A/Sicario.2015.iTA.Bluray.720p.x264-TRL.part1.rar
http://www.nitroflare.com/view/4D43B8C1AD2C82A/Sicario.2015.iTA.Bluray.720p.x264-TRL.part2.rar
http://www.nitroflare.com/view/404575D45CB106C/Sicario.2015.iTA.Bluray.720p.x264-TRL.part3.rar
http://www.nitroflare.com/view/DD5981281D9A7FC/Sicario.2015.iTA.Bluray.720p.x264-TRL.part4.rar
http://www.nitroflare.com/view/4364F8CBD532806/Sicario.2015.iTA.Bluray.720p.x264-TRL.part5.rar

BDRip 1080p

Single Link
http://www.nitroflare.com/view/235982DB4B03160

900 MB Links
http://www.nitroflare.com/view/A2C1BD2BC5F8EC1/Sicario.2015.iTA.Bluray.1080p.x264-TRL.part01.rar
http://www.nitroflare.com/view/6B886ED01E86DB1/Sicario.2015.iTA.Bluray.1080p.x264-TRL.part02.rar
http://www.nitroflare.com/view/57ABFD1319804F0/Sicario.2015.iTA.Bluray.1080p.x264-TRL.part03.rar
http://www.nitroflare.com/view/9EE30319D110A3B/Sicario.2015.iTA.Bluray.1080p.x264-TRL.part04.rar
http://www.nitroflare.com/view/C39505DD8AC489A/Sicario.2015.iTA.Bluray.1080p.x264-TRL.part05.rar
http://www.nitroflare.com/view/6D38F3FC0832E6D/Sicario.2015.iTA.Bluray.1080p.x264-TRL.part06.rar
http://www.nitroflare.com/view/AE85B2B76852948/Sicario.2015.iTA.Bluray.1080p.x264-TRL.part07.rar
http://www.nitroflare.com/view/3CDAF03C120D06E/Sicario.2015.iTA.Bluray.1080p.x264-TRL.part08.rar
http://www.nitroflare.com/view/917B282F6AB0D80/Sicario.2015.iTA.Bluray.1080p.x264-TRL.part09.rar
http://www.nitroflare.com/view/B5B17F271C20710/Sicario.2015.iTA.Bluray.1080p.x264-TRL.part10.rar