Tags
Language
Tags

BBC - Silenced: The Hidden Story of Disabled Britain (2021)

Posted By: Tutorial
1080p (FullHD) / HDTV IMDb
BBC - Silenced: The Hidden Story of Disabled Britain (2021)

BBC - Silenced: The Hidden Story of Disabled Britain (2021)
HDTV | 1920 x 1080 | .MKV/HEVC @ 2003 Kbps | 59 min 1 s | 899 MB
Audio: English AAC 125 Kbps, 2 channels | Subs: English
Genre: Documentary

For more than a century, one group of people in Britain has been shut out of society, denied basic human rights and treated with fear and prejudice.

Now, in this shocking, moving film, writer, actor and presenter Cerrie Burnell is going to uncover the hidden story of how disabled people fought back – and won their freedom.

Cerrie was born without the lower part of her right arm. As a presenter on CBeebies, Cerrie was astonished to learn that some viewers thought her appearance would scare watching children. Now, she wants to find out where these attitudes to disabled people come from and why they persist today.

She discovers how our modern attitudes to disabled people were first formed in the workhouses of Victorian Britain, uncovers the original records of an institution created to segregate disabled people and stop them having children, and traces the hidden lives of those confined to institutions for their whole lives.

Cerrie hears astonishing stories of heartbreak and cruelty. But she also meets some pioneers who changed the lives of disabled people forever. John Evans was one of the very first to move from a residential home into a one of his own, and Alia Hassan brought the streets of London to a standstill as part of a campaign fighting for disabled people to be allowed to get on a bus.

Ultimately Cerrie discovers that although much has changed for disabled people in Britain today, the battle is not yet won.

Silenced is a story of huge social change that many of us still don’t know about, told through the hidden lives of disabled people.

General
Unique ID : 250777920727966878572969878135042304079 (0xBCAA1218E0E6422FDFA307865CCD684F)
Complete name : BBC.Silenced.The.Hidden.Story.of.Disabled.Britain..mkv
Format : Matroska
Format version : Version 4
File size : 899 MiB
Duration : 59 min 1 s
Overall bit rate : 2 131 kb/s
Movie name : Silenced: The Hidden Story of Disabled Britain []
Encoded date : UTC 2021-02-26 14:50:25
Writing application : mkvmerge v53.0.0 ('Fool's Gold') 64-bit
Writing library : libebml v1.4.1 + libmatroska v1.6.2

Video
ID : 1
Format : HEVC
Format/Info : High Efficiency Video Coding
Format profile : Main@L4@Main
Codec ID : V_MPEGH/ISO/HEVC
Duration : 59 min 1 s
Bit rate : 2 003 kb/s
Width : 1 920 pixels
Height : 1 080 pixels
Display aspect ratio : 16:9
Frame rate mode : Constant
Frame rate : 25.000 FPS
Color space : YUV
Chroma subsampling : 4:2:0
Bit depth : 8 bits
Bits/(Pixel*Frame) : 0.039
Stream size : 846 MiB (94%)
Writing library : x265 3.4+36-5239276dd:[Windows][MSVC 1928][64 bit] 8bit
Encoding settings : cpuid=1111039 / frame-threads=3 / numa-pools=12 / wpp / no-pmode / no-pme / no-psnr / no-ssim / log-level=2 / input-csp=1 / input-res=1920x1080 / interlace=0 / total-frames=88525 / level-idc=0 / high-tier=1 / uhd-bd=0 / ref=3 / no-allow-non-conformance / no-repeat-headers / annexb / no-aud / no-hrd / info / hash=0 / no-temporal-layers / no-open-gop / min-keyint=25 / keyint=250 / gop-lookahead=12 / bframes=6 / b-adapt=2 / b-pyramid / bframe-bias=0 / rc-lookahead=20 / lookahead-slices=6 / scenecut=40 / hist-scenecut=0 / radl=0 / no-splice / no-intra-refresh / ctu=64 / min-cu-size=8 / no-rect / no-amp / max-tu-size=32 / tu-inter-depth=1 / tu-intra-depth=1 / limit-tu=0 / rdoq-level=0 / dynamic-rd=0.00 / no-ssim-rd / signhide / no-tskip / nr-intra=0 / nr-inter=0 / no-constrained-intra / strong-intra-smoothing / max-merge=3 / limit-refs=1 / no-limit-modes / me=2 / subme=2 / merange=48 / temporal-mvp / no-frame-dup / hme / Level / merange / L0,L1,L2=16,32,48 / weightp / weightb / no-analyze-src-pics / deblock=0:0 / sao / no-sao-non-deblock / rd=3 / selective-sao=4 / early-skip / rskip / no-fast-intra / no-tskip-fast / no-cu-lossless / b-intra / no-splitrd-skip / rdpenalty=0 / psy-rd=2.00 / psy-rdoq=0.00 / no-rd-refine / no-lossless / cbqpoffs=0 / crqpoffs=0 / rc=crf / crf=21.0 / qcomp=0.60 / qpstep=4 / stats-write=0 / stats-read=0 / ipratio=1.40 / pbratio=1.30 / aq-mode=4 / aq-strength=1.00 / cutree / zone-count=0 / no-strict-cbr / qg-size=32 / no-rc-grain / qpmax=69 / qpmin=0 / no-const-vbv / sar=1 / overscan=0 / videoformat=5 / range=0 / colorprim=1 / transfer=1 / colormatrix=1 / chromaloc=0 / display-window=0 / cll=0,0 / min-luma=0 / max-luma=255 / log2-max-poc-lsb=8 / vui-timing-info / vui-hrd-info / slices=1 / no-opt-qp-pps / no-opt-ref-list-length-pps / no-multi-pass-opt-rps / scenecut-bias=0.05 / hist-threshold=0.03 / no-opt-cu-delta-qp / no-aq-motion / no-hdr10 / no-hdr10-opt / no-dhdr10-opt / no-idr-recovery-sei / analysis-reuse-level=0 / analysis-save-reuse-level=0 / analysis-load-reuse-level=0 / scale-factor=0 / refine-intra=0 / refine-inter=0 / refine-mv=1 / refine-ctu-distortion=0 / no-limit-sao / ctu-info=0 / no-lowpass-dct / refine-analysis-type=0 / copy-pic=1 / max-ausize-factor=1.0 / no-dynamic-refine / no-single-sei / no-hevc-aq / no-svt / no-field / qp-adaptation-range=1.00 / scenecut-aware-qp=0conformance-window-offsets / right=0 / bottom=0 / decoder-max-rate=0 / no-vbv-live-multi-pass
Language : English
Default : Yes
Forced : No
Color range : Limited
Color primaries : BT.709
Transfer characteristics : BT.709
Matrix coefficients : BT.709

Audio
ID : 2
Format : AAC LC
Format/Info : Advanced Audio Codec Low Complexity
Codec ID : A_AAC-2
Duration : 59 min 0 s
Bit rate : 125 kb/s
Channel(s) : 2 channels
Channel layout : L R
Sampling rate : 48.0 kHz
Frame rate : 46.875 FPS (1024 SPF)
Compression mode : Lossy
Stream size : 52.8 MiB (6%)
Language : English
Default : Yes
Forced : No

Text
ID : 3
Format : UTF-8
Codec ID : S_TEXT/UTF8
Codec ID/Info : UTF-8 Plain Text
Duration : 58 min 28 s
Bit rate : 101 b/s
Count of elements : 1025
Stream size : 43.3 KiB (0%)
Language : English
Default : No
Forced : No
Screenshots

BBC - Silenced: The Hidden Story of Disabled Britain (2021)

BBC - Silenced: The Hidden Story of Disabled Britain (2021)

BBC - Silenced: The Hidden Story of Disabled Britain (2021)

Welcome to my blog - daily update!
BBC - Silenced: The Hidden Story of Disabled Britain (2021)