Silverlake Life: The View from Here (1993)

Posted By: vivid23
Silverlake Life: The View from Here (1993)

Silverlake Life: The View from Here (1993)
DVDrip | 704x480 | MKV/x264 @ 1097 Kbps | 99mn | Audio: English AC3 224 kbps, 2 channels | Subs: None | 957 MB
Genre: Documentary

This documentary is incredibly thought-provoking, bringing you in to the lives of two long-time lovers who are in the final stages of AIDS. The past footage of their twenty-some-odd years together really brings their final moments home.

More info

Video
ID : 2
Format : AVC
Format/Info : Advanced Video Codec
Format profile : High@L4.0
Format settings, CABAC : Yes
Format settings, ReFrames : 16 frames
Muxing mode : Header stripping
Codec ID : V_MPEG4/ISO/AVC
Duration : 1h 39mn
Bit rate : 1 097 Kbps
Width : 704 pixels
Height : 480 pixels
Display aspect ratio : 4:3
Frame rate : 29.970 fps
Standard : NTSC
Color space : YUV
Chroma subsampling : 4:2:0
Bit depth : 8 bits
Scan type : Progressive
Bits/(Pixel*Frame) : 0.108
Stream size : 779 MiB (81%)
Language : English

Audio
ID : 1
Format : AC-3
Format/Info : Audio Coding 3
Mode extension : CM (complete main)
Muxing mode : Header stripping
Codec ID : A_AC3
Duration : 1h 39mn
Bit rate mode : Constant
Bit rate : 224 Kbps
Channel(s) : 2 channels
Channel positions : Front: L R
Sampling rate : 48.0 KHz
Bit depth : 16 bits
Compression mode : Lossy
Video delay : 14ms
Stream size : 159 MiB (17%)
Title : English
Language : English


Silverlake Life: The View from Here (1993)

Silverlake Life: The View from Here (1993)


Feel free to contact me when links are dead