Tags
Language
Tags

Singin' in the Rain (1952)

Posted By: Tavaz
1080p (FullHD) / BDRip IMDb
Singin' in the Rain (1952)

Singin' in the Rain (1952)
BDRip | MKV | 1480x1080 | French / English | H265 @ 7000 kbps | AAC @ 148 kbps | 1 h 42 min | 5.60 GiB
Subtitles: French
Genre: Comedy, Music, Romance

A silent film production company and cast make a difficult transition to sound.

Chantons_sous_la_pluie.mkv (5.6 GB)



General
Unique ID : 110439978671056861807378535111526767523 (0x5315F758C0AC20522D718A0DE5ECDBA3)
Complete name : ./Chantons_sous_la_pluie.mkv
Format : Matroska
Format version : Version 4 / Version 2
File size : 5.60 GiB
Duration : 1 h 42 min
Overall bit rate : 7 791 kb/s
Encoded date : UTC 2019-05-21 06:31:42
Writing application : mkvmerge v33.1.0 ('Primrose') 32-bit
Writing library : libebml v1.3.7 + libmatroska v1.5.0
Cover : Yes
Attachments : cover.jpg

Video
ID : 1
Format : HEVC
Format/Info : High Efficiency Video Coding
Format profile : Main@L4@Main
Codec ID : V_MPEGH/ISO/HEVC
Duration : 1 h 42 min
Bit rate : 7 001 kb/s
Width : 1 480 pixels
Height : 1 080 pixels
Display aspect ratio : 1.370
Frame rate mode : Constant
Frame rate : 23.976 (24000/1001) FPS
Color space : YUV
Chroma subsampling : 4:2:0
Bit depth : 8 bits
Bits/(Pixel*Frame) : 0.183
Stream size : 5.03 GiB (90%)
Title : Singin.in.the.Rain.1952.1080p.BluRay.x265.HEVC.EAC3-SARTRE
Writing library : x265 3.0_RC+10-672ce0547e97:[Windows][MSVC 1916][64 bit] 8bit
Encoding settings : cpuid=1111039 / frame-threads=2 / numa-pools=4 / wpp / no-pmode / no-pme / no-psnr / no-ssim / log-level=2 / input-csp=1 / input-res=1480x1080 / interlace=0 / total-frames=0 / level-idc=0 / high-tier=1 / uhd-bd=0 / ref=4 / no-allow-non-conformance / no-repeat-headers / annexb / no-aud / no-hrd / info / hash=0 / no-temporal-layers / no-open-gop / min-keyint=23 / keyint=250 / gop-lookahead=0 / bframes=6 / b-adapt=2 / b-pyramid / bframe-bias=0 / rc-lookahead=30 / lookahead-slices=0 / scenecut=40 / radl=0 / no-splice / no-intra-refresh / ctu=32 / min-cu-size=8 / no-rect / no-amp / max-tu-size=16 / tu-inter-depth=1 / tu-intra-depth=1 / limit-tu=0 / rdoq-level=2 / dynamic-rd=0.00 / no-ssim-rd / signhide / no-tskip / nr-intra=0 / nr-inter=0 / no-constrained-intra / no-strong-intra-smoothing / max-merge=3 / limit-refs=3 / limit-modes / me=3 / subme=5 / merange=25 / temporal-mvp / weightp / no-weightb / no-analyze-src-pics / deblock=-2:-2 / no-sao / no-sao-non-deblock / rd=3 / no-early-skip / rskip / no-fast-intra / no-tskip-fast / no-cu-lossless / no-b-intra / no-splitrd-skip / rdpenalty=0 / psy-rd=2.20 / psy-rdoq=1.00 / no-rd-refine / no-lossless / cbqpoffs=0 / crqpoffs=0 / rc=abr / bitrate=7000 / qcomp=0.75 / qpstep=4 / stats-write=0 / stats-read=2 / cplxblur=20.0 / qblur=0.5 / ipratio=1.40 / pbratio=1.20 / aq-mode=2 / aq-strength=1.10 / no-cutree / zone-count=0 / no-strict-cbr / qg-size=16 / no-rc-grain / qpmax=69 / qpmin=0 / no-const-vbv / sar=0 / overscan=0 / videoformat=5 / range=0 / colorprim=2 / transfer=2 / colormatrix=2 / chromaloc=0 / display-window=0 / max-cll=0,0 / min-luma=0 / max-luma=255 / log2-max-poc-lsb=8 / vui-timing-info / vui-hrd-info / slices=1 / no-opt-qp-pps / no-opt-ref-list-length-pps / no-multi-pass-opt-rps / scenecut-bias=0.05 / no-opt-cu-delta-qp / no-aq-motion / no-hdr / no-hdr-opt / no-dhdr10-opt / no-idr-recovery-sei / analysis-reuse-level=5 / scale-factor=0 / refine-intra=0 / refine-inter=0 / refine-mv=0 / refine-ctu-distortion=0 / no-limit-sao / ctu-info=0 / no-lowpass-dct / refine-analysis-type=0 / copy-pic=1 / max-ausize-factor=1.0 / no-dynamic-refine / no-single-sei / no-hevc-aq / qp-adaptation-range=1.00
Default : Yes
Forced : No

Audio #1
ID : 2
Format : AAC
Format/Info : Advanced Audio Codec
Format profile : LC
Codec ID : A_AAC-2
Duration : 1 h 42 min
Bit rate : 148 kb/s
Channel(s) : 1 channel
Channel positions : Front: C
Sampling rate : 48.0 kHz
Frame rate : 46.875 FPS (1024 SPF)
Compression mode : Lossy
Stream size : 109 MiB (2%)
Title : Stéréo
Language : French
Default : Yes
Forced : No

Audio #2
ID : 3
Format : E-AC-3
Format/Info : Enhanced Audio Coding 3
Format settings, Endianness : Big
Codec ID : A_EAC3
Duration : 1 h 42 min
Bit rate mode : Constant
Bit rate : 640 kb/s
Channel(s) : 6 channels
Channel positions : Front: L C R, Side: L R, LFE
Sampling rate : 48.0 kHz
Frame rate : 187.500 FPS (256 SPF)
Compression mode : Lossy
Stream size : 471 MiB (8%)
Title : Dolby Digital Plus
Language : English
Service kind : Complete Main
Default : No
Forced : No

Text
ID : 4
Format : UTF-8
Codec ID : S_TEXT/UTF8
Codec ID/Info : UTF-8 Plain Text
Duration : 1 h 42 min
Bit rate : 37 b/s
Count of elements : 893
Stream size : 28.4 KiB (0%)
Language : French
Default : No
Forced : No

Menu
00:00:00.000 : en:Credits
00:01:36.513 : en:"The Royal Rascal" Premiere
00:05:21.946 : en:"Fit as a Fiddle"
00:07:50.219 : en:Dignified Star
00:11:09.001 : en:Thanks… Acted Out
00:13:00.070 : en:Irresistible
00:15:22.963 : en:Don and Kathy
00:19:33.130 : en:Talking Picture
00:22:34.227 : en:"All I Do Is Dream of You"
00:25:34.157 : en:On Don's Mind
00:27:14.007 : en:"Make 'Em Laugh"
00:30:55.687 : en:Lovebirds
00:33:16.577 : en:They Talk!
00:35:26.082 : en:"Beautiful Girl"
00:38:45.906 : en:She's Hired
00:41:34.742 : en:"You Were Meant for Me"
00:46:12.978 : en:Diction Coaches
00:48:02.588 : en:"Moses Supposes"
00:51:26.124 : en:Love to a Bush
00:53:38.006 : en:Wired for Sound
00:55:21.901 : en:The Preview
00:59:35.697 : en:Make it a Musical
01:01:25.348 : en:"Good Morning"
01:05:13.200 : en:Cosmo's Brilliant Idea
01:07:06.355 : en:"Singin' in the Rain"
01:11:53.809 : en:Conferring With RF
01:13:27.027 : en:"Would You?"
01:15:26.605 : en:"The Broadway Melody" Opening
01:17:51.541 : en:"Broadway Rhythm"
01:19:41.651 : en:Shady Lady
01:22:39.287 : en:Rise to Fame
01:24:07.959 : en:Pas de Deux
01:27:19.317 : en:"The Broadway Melody" Finale
01:29:07.550 : en:Lina's Revenge
01:34:15.524 : en:Opening Night
01:35:52.079 : en:Lina's Speech
01:38:36.410 : en:"Singin' in the Rain" in A Flat
01:41:06.310 : en:"You Are My Lucky Star"





Singin' in the Rain (1952)


Singin' in the Rain (1952)


Singin' in the Rain (1952)


Singin' in the Rain (1952)


Singin' in the Rain (1952)