Tags
Language
Tags

Skateland (2010)

Posted By: FenixN
Skateland (2010)

Skateland (2010)
BDRip | MKV / x264, 4833 kb/s | 1280x534 | 01:38:18 | English: DTS, 1510 kb/s (6 ch) | 4.36 GB
Genre: Drama | USA

An iconic tribute to a culture, place and state of mind that defined small town America in the early 80s. It is a universal moment in time, when everything you know to be true starts fading. The story is personal, yet familiar, set against a visually arresting landscape of music and vistas of Americana.

imdb: 4.4/10 (314 votes)

Format : Matroska
File size : 4.36 GiB
Duration : 1h 38mn
Overall bit rate : 6 345 Kbps
Encoded date : UTC 2011-08-08 12:25:50
Writing application : mkvmerge v3.2.0 ('Beginnings') 编译于 Feb 12 2010 16:46:17
Writing library : libebml v0.7.9 + libmatroska v0.8.1

Video
ID : 1
Format : AVC
Format/Info : Advanced Video Codec
Format profile : High@L4.1
Format settings, CABAC : Yes
Format settings, ReFrames : 12 frames
Codec ID : V_MPEG4/ISO/AVC
Duration : 1h 38mn
Bit rate : 4 833 Kbps
Width : 1 280 pixels
Height : 534 pixels
Display aspect ratio : 2.35:1
Frame rate : 23.976 fps
Color space : YUV
Chroma subsampling : 4:2:0
Bit depth : 8 bits
Scan type : Progressive
Bits/(Pixel*Frame) : 0.295
Stream size : 3.23 GiB (74%)
Title : Skateland.2010.BluRay.720p.DTS.x264-CHD
Writing library : x264 core 102 r1666 d058f37
Encoding settings : cabac=1 / ref=12 / deblock=1:-3:-3 / analyse=0x3:0x113 / me=umh / subme=9 / psy=1 / psy_rd=1.05:0.10 / mixed_ref=1 / me_range=32 / chroma_me=1 / trellis=2 / 8x8dct=1 / cqm=2 / deadzone=21,11 / fast_pskip=0 / chroma_qp_offset=-2 / threads=6 / sliced_threads=0 / nr=0 / decimate=1 / interlaced=0 / constrained_intra=0 / bframes=6 / b_pyramid=2 / b_adapt=2 / b_bias=0 / direct=3 / weightb=1 / open_gop=0 / weightp=2 / keyint=250 / keyint_min=25 / scenecut=40 / intra_refresh=0 / rc_lookahead=40 / rc=2pass / mbtree=1 / bitrate=4833 / ratetol=1.0 / qcomp=0.60 / qpmin=10 / qpmax=51 / qpstep=4 / cplxblur=20.0 / qblur=0.5 / vbv_maxrate=50000 / vbv_bufsize=50000 / ip_ratio=1.40 / aq=1:0.80 / nal_hrd=none
Language : English

Audio
ID : 2
Format : DTS
Format/Info : Digital Theater Systems
Codec ID : A_DTS
Duration : 1h 38mn
Bit rate mode : Constant
Bit rate : 1 510 Kbps
Channel(s) : 6 channels
Channel positions : Front: L C R, Side: L R, LFE
Sampling rate : 48.0 KHz
Bit depth : 24 bits
Compression mode : Lossy
Stream size : 1.04 GiB (24%)
Title : Skateland.2010.DTS-HD.MA Core_1509kbps
Language : English


screenshot
Skateland (2010)

Skateland (2010)

Skateland (2010)


Welcome to the best movies collection (English, German, French language), best software, best eLearning video and many-many more: LINK
Do not forget to check my blog! Updated regularly!