Tags
Language
Tags

Skyscraper (2018)

Posted By: JohnSmith
SD / WEB-DL IMDb
Skyscraper (2018)

Skyscraper (2018)
HDRip MD | AVI / XviD@1780 kb/s | 720x304 | 1h 42mn | 1.37 GB | Italian (dubbed): MP3, 128 kb/s (2 ch)
Genre: Action | Thriller

Will, ex agente dell'Fbi e veterano di guerra, si occupa di valutare gli standard di sicurezza dei grattacieli. Per lavoro in Cina, vede andare in fiamme il grattacielo più alto e sicuro del mondo. Ritenuto colpevole, Will si vede costretto a scappare, a ricercare i veri responsabili e a salvare sia la sua reputazione sia la sua famiglia intrappolata all'interno dell'edificio.




General
Complete name : A:\Skyscraper.2018.iTALiAN.MD.WEBDL.XviD-iSTANCE.avi
Format : AVI
Format/Info : Audio Video Interleave
File size : 1.37 GiB
Duration : 1 h 42 min
Overall bit rate : 1 917 kb/s
Writing library : VirtualDub build 35491/release

Video
ID : 0
Format : MPEG-4 Visual
Format profile : Advanced Simple@L5
Format settings, BVOP : 2
Format settings, QPel : No
Format settings, GMC : No warppoints
Format settings, Matrix : Default (H.263)
Muxing mode : Packed bitstream
Codec ID : XVID
Codec ID/Hint : XviD
Duration : 1 h 42 min
Bit rate : 1 779 kb/s
Width : 720 pixels
Height : 304 pixels
Display aspect ratio : 2.35:1
Frame rate : 23.976 (24000/1001) FPS
Color space : YUV
Chroma subsampling : 4:2:0
Bit depth : 8 bits
Scan type : Progressive
Compression mode : Lossy
Bits/(Pixel*Frame) : 0.339
Stream size : 1.27 GiB (93%)
Writing library : XviD 67

Audio
ID : 1
Format : MPEG Audio
Format version : Version 1
Format profile : Layer 3
Mode : Joint stereo
Codec ID : 55
Codec ID/Hint : MP3
Duration : 1 h 42 min
Bit rate mode : Constant
Bit rate : 128 kb/s
Channel(s) : 2 channels
Sampling rate : 48.0 kHz
Compression mode : Lossy
Stream size : 93.7 MiB (7%)
Alignment : Split accross interleaves
Interleave, duration : 42 ms (1.00 video frame)
Interleave, preload duratio : 500 ms
Writing library : LAME3.99rЄ




Screenshots

Skyscraper (2018)

Skyscraper (2018)

Skyscraper (2018)