Tags
Language
Tags

Snake Outta Compton (2018)

Posted By: Tavaz
1080p (FullHD) / BDRip IMDb
Snake Outta Compton (2018)

Snake Outta Compton (2018)
BluRay Remux | MKV | 1920x1080 | English / English | H264 @ 24061 kbps | DTS | 1 h 23 min | 16.0 GiB
Genre: Comedy, Horror, Science Fiction

A rap group on the verge of signing their first record deal is the city's only hope in a battle with a giant mutating snake monster.

3be7637e2d624326b8f000eab6e830aa.mkv (16.0 GB)



General
Unique ID : 153142854772336642615705963521216556669 (0x73363DB0B38CC817621CB500E8FB2E7D)
Complete name : ./3be7637e2d624326b8f000eab6e830aa.mkv
Format : Matroska
Format version : Version 4 / Version 2
File size : 16.0 GiB
Duration : 1 h 23 min
Overall bit rate mode : Variable
Overall bit rate : 27.6 Mb/s
Movie name : Snake.Outta.Compton.2018.1080p.BluRay.REMUX.AVC.DTS-HD.MA.5.1-FGT
Encoded date : UTC 2018-04-29 08:18:05
Writing application : mkvmerge v22.0.0 ('At The End Of The World') 64-bit
Writing library : libebml v1.3.5 + libmatroska v1.4.8
Cover : Yes
Attachments : small_cover.jpg / small_cover_land.jpg / cover.jpg / cover_land.jpg

Video
ID : 1
Format : AVC
Format/Info : Advanced Video Codec
Format profile : High@L4.1
Format settings : CABAC / 3 Ref Frames
Format settings, CABAC : Yes
Format settings, RefFrames : 3 frames
Codec ID : V_MPEG4/ISO/AVC
Duration : 1 h 23 min
Bit rate mode : Variable
Bit rate : 24.1 Mb/s
Maximum bit rate : 37.0 Mb/s
Width : 1 920 pixels
Height : 1 080 pixels
Display aspect ratio : 16:9
Frame rate mode : Constant
Frame rate : 23.976 (24000/1001) FPS
Color space : YUV
Chroma subsampling : 4:2:0
Bit depth : 8 bits
Scan type : Progressive
Bits/(Pixel*Frame) : 0.484
Stream size : 14.0 GiB (87%)
Title : Snake.Outta.Compton.2018.1080p.BluRay.REMUX.AVC.DTS-HD.MA.5.1-FGT
Language : English
Default : No
Forced : No

Audio #1
ID : 2
Format : DTS
Format/Info : Digital Theater Systems
Format profile : MA / Core
Mode : 16
Format settings, Endianness : Big
Codec ID : A_DTS
Duration : 1 h 23 min
Bit rate mode : Variable / Constant
Bit rate : 2 048 kb/s / 1 509 kb/s
Channel(s) : 6 channels
Channel positions : Front: L C R, Side: L R, LFE
Sampling rate : 48.0 kHz
Frame rate : 93.750 FPS (512 SPF)
Bit depth : 16 bits
Compression mode : Lossless / Lossy
Stream size : 1.17 GiB (7%)
Title : Snake.Outta.Compton.2018.1080p.BluRay.REMUX.AVC.DTS-HD.MA.5.1-FGT
Language : English
Default : Yes
Forced : No

Audio #2
ID : 3
Format : DTS
Format/Info : Digital Theater Systems
Mode : 16
Format settings, Endianness : Big
Codec ID : A_DTS
Duration : 1 h 23 min
Bit rate mode : Constant
Bit rate : 1 509 kb/s
Channel(s) : 6 channels
Channel positions : Front: L C R, Side: L R, LFE
Sampling rate : 48.0 kHz
Frame rate : 93.750 FPS (512 SPF)
Bit depth : 16 bits
Compression mode : Lossy
Stream size : 898 MiB (5%)
Title : Snake.Outta.Compton.2018.1080p.BluRay.REMUX.AVC.DTS-HD.MA.5.1-FGT
Language : English
Default : No
Forced : No

Menu
00:00:00.000 : en:Chapter 01
00:08:13.534 : en:Chapter 02
00:15:58.499 : en:Chapter 03
00:22:47.532 : en:Chapter 04
00:28:34.129 : en:Chapter 05
00:34:58.346 : en:Chapter 06
00:41:59.183 : en:Chapter 07
00:49:00.729 : en:Chapter 08
00:55:14.811 : en:Chapter 09
01:04:19.355 : en:Chapter 10
01:14:21.832 : en:Chapter 11
01:19:58.627 : en:Chapter 12





Snake Outta Compton (2018)


Snake Outta Compton (2018)


Snake Outta Compton (2018)


Snake Outta Compton (2018)


Snake Outta Compton (2018)