Tags
Language
Tags

Snake Outta Compton (2018)

Posted By: Tavaz
1080p (FullHD) / BDRip IMDb
Snake Outta Compton (2018)

Snake Outta Compton (2018)
BDRip | MKV | 1920x816 | H265 @ 2828 kbps | AC-3 @ 448 kbps | 1 h 23 min | 1.94 GiB
Genre: Comedy, Horror, Science Fiction

A rap group on the verge of signing their first record deal is the city's only hope in a battle with a giant mutating snake monster.

f225b3b28e61482fb5879e407c5a8dcc.mkv (1.9 GB)



General
Unique ID : 167407383791689627606268162732867672420 (0x7DF17D4518F59F75DA1C07071C2B5964)
Complete name : ./f225b3b28e61482fb5879e407c5a8dcc.mkv
Format : Matroska
Format version : Version 4 / Version 2
File size : 1.94 GiB
Duration : 1 h 23 min
Overall bit rate : 3 343 kb/s
Writing application : Lavf57.82.100
Writing library : Lavf57.82.100
ErrorDetectionType : Per level 1

Video
ID : 1
Format : HEVC
Format/Info : High Efficiency Video Coding
Format profile : Main 10@L4@Main
Codec ID : V_MPEGH/ISO/HEVC
Duration : 1 h 23 min
Bit rate : 2 828 kb/s
Width : 1 920 pixels
Height : 816 pixels
Display aspect ratio : 2.35:1
Frame rate mode : Constant
Frame rate : 23.976 (24000/1001) FPS
Color space : YUV
Chroma subsampling : 4:2:0
Bit depth : 10 bits
Bits/(Pixel*Frame) : 0.075
Stream size : 1.64 GiB (85%)
Default : Yes
Forced : No
Color range : Limited
Color primaries : BT.709
Transfer characteristics : BT.709
Matrix coefficients : BT.709

Audio
ID : 2
Format : AC-3
Format/Info : Audio Coding 3
Format settings, Endianness : Big
Codec ID : A_AC3
Duration : 1 h 23 min
Bit rate mode : Constant
Bit rate : 448 kb/s
Channel(s) : 6 channels
Channel positions : Front: L C R, Side: L R, LFE
Sampling rate : 48.0 kHz
Frame rate : 31.250 FPS (1536 SPF)
Bit depth : 16 bits
Compression mode : Lossy
Stream size : 267 MiB (13%)
Service kind : Complete Main
Default : Yes
Forced : No

Menu





Snake Outta Compton (2018)


Snake Outta Compton (2018)


Snake Outta Compton (2018)


Snake Outta Compton (2018)


Snake Outta Compton (2018)