Tags
Language
Tags

BSkyB - Son of Cornwall (2020)

Posted By: notbanned
SD / DVDRip IMDb
BSkyB - Son of Cornwall (2020)

BSkyB - Son of Cornwall (2020)
PDTV | 960x540 | .MKV/AVC @ 1162 Kbps | 1 h 27 min | 767 MiB
Audio: English AAC 64 kbps, 2 channels | Subs: English
Genre: Documentary

Son of Cornwall is a biopic about the life and career of opera star John Treleaven. His son takes him on a personal and emotional journey down memory lane, exploring what drives him as an artist. The film tells of success and sacrifice and the cost of living your dream.

As the son of a fisherman, young Johnny Richards lives in a small village in Cornwall. So far, he has only been able to demonstrate his singing talent in the church choir. But when famous concert pianist Marjory Fogg by chance heard him sing, while he was bathing in the local harbour, she immediately recognized his potential. John's voice turns out to be a way out of the sleepy town of Porthleven and becomes a springboard for an international career.

Johnny Richards turns into the tenor John Treleaven. But when the curtain falls, the opera star becomes a private man and family man, who despite all his successes has not always been able to cope with the pressure to perform in the industry. In spring 2018, John and his son Lawrence set off on a concert tour to their home in southern England. They enjoy the time together that the son was often denied in the past. The road trip becomes the basis of a biographical portrait.

In conversations and interviews, the two do not always take a pleasant look at the past between career and family life. The documentary illuminates what drives and moves John as an artist and as a person. "Son of Cornwall" is peppered with material from Treleaven's major appearances and interviews with long-time companions. The film tells of the rise of exceptional talent and the cost of fulfilling your dream.

General
Unique ID : 75063443429828668007022155294512337963 (0x3878B17EEDD137DEE80F91823C89542B)
Complete name : Son.of.Cornwall.PDTV.mkv
Format : Matroska
Format version : Version 4 / Version 2
File size : 767 MiB
Duration : 1 h 27 min
Overall bit rate : 1 228 kb/s

Video
ID : 1
Format : AVC
Format/Info : Advanced Video Codec
Format profile : Main@L3.1
Format settings, CABAC : Yes
Format settings, ReFrames : 4 frames
Codec ID : V_MPEG4/ISO/AVC
Duration : 1 h 27 min
Bit rate : 1 162 kb/s
Width : 960 pixels
Height : 540 pixels
Display aspect ratio : 16:9
Frame rate mode : Constant
Frame rate : 25.000 FPS
Color space : YUV
Chroma subsampling : 4:2:0
Bit depth : 8 bits
Scan type : Progressive
Bits/(Pixel*Frame) : 0.090
Stream size : 726 MiB (95%)
Encoding settings : cabac=1 / ref=4 / deblock=1:0:0 / analyse=0x1:0x111 / me=umh / subme=9 / psy=1 / psy_rd=1.00:0.00 / mixed_ref=1 / me_range=16 / chroma_me=1 / trellis=1 / 8x8dct=0 / cqm=0 / deadzone=21,11 / fast_pskip=0 / chroma_qp_offset=-2 / threads=17 / lookahead_threads=1 / sliced_threads=0 / nr=0 / decimate=1 / interlaced=0 / bluray_compat=0 / constrained_intra=0 / bframes=6 / b_pyramid=2 / b_adapt=2 / b_bias=0 / direct=1 / weightb=1 / open_gop=0 / weightp=2 / keyint=250 / keyint_min=25 / scenecut=40 / intra_refresh=0 / rc_lookahead=40 / rc=crf / mbtree=1 / crf=21.0 / qcomp=0.60 / qpmin=0 / qpmax=69 / qpstep=4 / ip_ratio=1.40 / aq=2:1.00
Language : English
Default : Yes
Forced : No
Color range : Limited
Color primaries : BT.601 PAL
Transfer characteristics : BT.470 System B, BT.470 System G
Matrix coefficients : BT.601

Audio
ID : 2
Format : AAC
Format/Info : Advanced Audio Codec
Format profile : HE-AAC / LC
Codec ID : A_AAC
Duration : 1 h 27 min
Bit rate : 64.0 kb/s
Channel(s) : 2 channels
Channel positions : Front: L R
Sampling rate : 48.0 kHz / 24.0 kHz
Frame rate : 23.438 FPS (1024 spf)
Compression mode : Lossy
Stream size : 40.0 MiB (5%)
Language : English
Default : Yes
Forced : No

Text
ID : 3
Format : UTF-8
Codec ID : S_TEXT/UTF8
Codec ID/Info : UTF-8 Plain Text
Duration : 1 h 26 min
Bit rate : 79 b/s
Count of elements : 1325
Stream size : 50.3 KiB (0%)
Language : English
Default : No
Forced : No


Screenshots:

BSkyB - Son of Cornwall (2020)

BSkyB - Son of Cornwall (2020)

BSkyB - Son of Cornwall (2020)

BSkyB - Son of Cornwall (2020)