Sparring (2018)

Posted By: Tavaz
SD / CAMRip IMDb
Sparring (2018)

Sparring (2018)
AVI | 656x272 | French | MP4V-ES @ 841 kbps | MPEG Audio @ 128 kbps | 1 h 33 min | 1.41 GiB
Genre: Drama

A plus de 40 ans, Steve Landry est un boxeur qui a perdu plus de combats qu’il n’en a gagnés. Avant de raccrocher les gants, il accepte une offre que beaucoup de boxeurs préfèrent refuser : devenir sparring partner d’un grand champion.

Sparring.2018.FRENCH.HDTS.XViD-SCREEN.avi (1.4 GB)



General
Complete name : ./Sparring.2018.FRENCH.HDTS.XViD-SCREEN.avi
Format : AVI
Format/Info : Audio Video Interleave
File size : 1.41 GiB
Duration : 1 h 33 min
Overall bit rate : 2 159 kb/s

Video
ID : 0
Format : MPEG-4 Visual
Format profile : Simple@L3
Format settings, BVOP : No
Format settings, QPel : No
Format settings, GMC : No warppoints
Format settings, Matrix : Default (H.263)
Codec ID : DX50
Codec ID/Hint : DivX 5
Duration : 1 h 33 min
Bit rate : 842 kb/s
Nominal bit rate : 4 854 kb/s
Width : 656 pixels
Height : 272 pixels
Display aspect ratio : 2.40:1
Frame rate : 23.976 (24000/1001) FPS
Color space : YUV
Chroma subsampling : 4:2:0
Bit depth : 8 bits
Scan type : Progressive
Compression mode : Lossy
Bits/(Pixel*Frame) : 0.197
Stream size : 563 MiB (39%)
Writing library : XviD 1.1.2 (UTC 2006-11-01)

Audio
ID : 1
Format : MPEG Audio
Format version : Version 1
Format profile : Layer 3
Format settings : Joint stereo / MS Stereo
Mode : Joint stereo
Mode extension : MS Stereo
Codec ID : 55
Codec ID/Hint : MP3
Duration : 1 h 33 min
Bit rate mode : Constant
Bit rate : 128 kb/s
Channel(s) : 2 channels
Sampling rate : 44.1 kHz
Compression mode : Lossy
Delay relative to video : 2 ms
Stream size : 85.6 MiB (6%)
Alignment : Split accross interleaves
Interleave, duration : 26 ms (0.63 video frame)
Interleave, preload duration : 52 ms





Sparring (2018)


Sparring (2018)


Sparring (2018)


Sparring (2018)


Sparring (2018)