Tags
Language
Tags

BBC - Spy in the Wild: Series 2 (2020)

Posted By: Tutorial
1080p (FullHD) / HDTV IMDb
BBC - Spy in the Wild: Series 2 (2020)

BBC - Spy in the Wild: Series 2 (2020)
HDTV | 1920 x 1080 | .MKV/HEVC @ 3074 Kbps | 4x~58mn | 4.96 GB
Audio: English AAC 149 Kbps, 2 channels | Subs: English
Genre: Documentary

Natural history documentary in which spy cameras camouflaged as various creatures go undercover in the animal world, getting up close and personal to film their behaviour.

Part 1: Tropics
Cameras follow a family of gorillas, with Spy Grub and Spy Fruit testing their intelligence. Elsewhere in Brazil, Spy Jaguar Cub explores a beautiful gathering of water birds, capybara and caiman, and joins Spy Caiman to film a feeding frenzy.


Part 2: North
Cameras follow Japanese macaques in the snow-covered mountains of Japan, as they gather at steaming hot thermal pools to bathe and socialise. Elsewhere in the cool mountains of Mexico, cameras capture a spectacular gathering of billions of monarch butterflies, and in Bavaria, Germany, Spy Beaver gains unique access to the secretive world of the beaver.


Part 3: Islands
On Christmas Island, the Spy Crab camera walks among red crabs as they march into the sea, and in Madagascar, cameras follow many of the species of chameleon that live there. Meanwhile on Seal island off the tip of South Africa, Spy Seal Pup finds itself in the midst of the 60,000 cape fur seals that have come ashore to raise their young.


Part 4: Poles
Cameras travel to the Arctic and Antarctic circles, following chicks in a king penguin colony on the island of South Georgia in the Southern Ocean. On the other side of the world, Spy Walrus discovers a walrus family hauled out on an ice floe, before Spy Gyrfalcon follows the family as they head towards dry land. Elsewhere on Norway's Hornoya island, Spy Puffin follows thousands of male puffins as they gather in the snow and search for their life-long partners

General
Unique ID : 110730042307384437692607164457419735853 (0x534DD4968E64EDDB2B68BE8F262F032D)
Complete name : BBC.Spy.in.the.Wild.Series.2.1of4.Tropics.mkv
Format : Matroska
Format version : Version 4 / Version 2
File size : 1.31 GiB
Duration : 58 min 0 s
Overall bit rate : 3 225 kb/s
Movie name : Spy in the Wild Series 2 [MVGroup]
Encoded date : UTC 2020-02-20 09:17:35
Writing application : mkvmerge v43.0.0 ('The Quartermaster') 64-bit
Writing library : libebml v1.3.10 + libmatroska v1.5.2

Video
ID : 1
Format : HEVC
Format/Info : High Efficiency Video Coding
Format profile : Main@L4@Main
Codec ID : V_MPEGH/ISO/HEVC
Duration : 58 min 0 s
Bit rate : 3 074 kb/s
Width : 1 920 pixels
Height : 1 080 pixels
Display aspect ratio : 16:9
Frame rate mode : Constant
Frame rate : 25.000 FPS
Color space : YUV
Chroma subsampling : 4:2:0
Bit depth : 8 bits
Bits/(Pixel*Frame) : 0.059
Stream size : 1.25 GiB (95%)
Writing library : x265 3.2+38-fdbd4e4a2aff:[Windows][MSVC 1924][64 bit] 8bit
Encoding settings : cpuid=1111039 / frame-threads=3 / numa-pools=12 / wpp / no-pmode / no-pme / no-psnr / no-ssim / log-level=2 / input-csp=1 / input-res=1920x1080 / interlace=0 / total-frames=67 / level-idc=0 / high-tier=1 / uhd-bd=0 / ref=3 / no-allow-non-conformance / no-repeat-headers / annexb / no-aud / no-hrd / info / hash=0 / no-temporal-layers / no-open-gop / min-keyint=25 / keyint=250 / gop-lookahead=12 / bframes=6 / b-adapt=2 / b-pyramid / bframe-bias=0 / rc-lookahead=20 / lookahead-slices=6 / scenecut=40 / hist-scenecut=0 / radl=0 / no-splice / no-intra-refresh / ctu=64 / min-cu-size=8 / no-rect / no-amp / max-tu-size=32 / tu-inter-depth=1 / tu-intra-depth=1 / limit-tu=0 / rdoq-level=0 / dynamic-rd=0.00 / no-ssim-rd / signhide / no-tskip / nr-intra=0 / nr-inter=0 / no-constrained-intra / strong-intra-smoothing / max-merge=3 / limit-refs=1 / no-limit-modes / me=2 / subme=2 / merange=48 / temporal-mvp / no-frame-dup / hme / Level / merange / L0,L1,L2=16,32,48 / weightp / weightb / no-analyze-src-pics / deblock=0:0 / sao / no-sao-non-deblock / rd=3 / selective-sao=4 / early-skip / rskip / no-fast-intra / no-tskip-fast / no-cu-lossless / b-intra / no-splitrd-skip / rdpenalty=0 / psy-rd=2.00 / psy-rdoq=0.00 / no-rd-refine / no-lossless / cbqpoffs=0 / crqpoffs=0 / rc=crf / crf=23.0 / qcomp=0.60 / qpstep=4 / stats-write=0 / stats-read=0 / ipratio=1.40 / pbratio=1.30 / aq-mode=4 / aq-strength=1.00 / cutree / zone-count=0 / no-strict-cbr / qg-size=32 / no-rc-grain / qpmax=69 / qpmin=0 / no-const-vbv / sar=1 / overscan=0 / videoformat=5 / range=0 / colorprim=1 / transfer=1 / colormatrix=1 / chromaloc=0 / display-window=0 / cll=0,0 / min-luma=0 / max-luma=255 / log2-max-poc-lsb=8 / vui-timing-info / vui-hrd-info / slices=1 / no-opt-qp-pps / no-opt-ref-list-length-pps / no-multi-pass-opt-rps / scenecut-bias=0.05 / hist-threshold=0.01 / no-opt-cu-delta-qp / no-aq-motion / no-hdr10 / no-hdr10-opt / no-dhdr10-opt / no-idr-recovery-sei / analysis-reuse-level=0 / analysis-save-reuse-level=0 / analysis-load-reuse-level=0 / scale-factor=0 / refine-intra=0 / refine-inter=0 / refine-mv=1 / refine-ctu-distortion=0 / no-limit-sao / ctu-info=0 / no-lowpass-dct / refine-analysis-type=0 / copy-pic=1 / max-ausize-factor=1.0 / no-dynamic-refine / no-single-sei / no-hevc-aq / no-svt / no-field / qp-adaptation-range=1.00 / no-scenecut-aware-qpconformance-window-offsets / right=0 / bottom=0
Language : English
Default : Yes
Forced : No
Color range : Limited
Color primaries : BT.709
Transfer characteristics : BT.709
Matrix coefficients : BT.709

Audio
ID : 2
Format : AAC
Format/Info : Advanced Audio Codec
Format profile : LC
Codec ID : A_AAC
Duration : 57 min 59 s
Bit rate : 149 kb/s
Channel(s) : 2 channels
Channel positions : Front: L R
Sampling rate : 48.0 kHz
Frame rate : 46.875 FPS (1024 spf)
Compression mode : Lossy
Delay relative to video : 9 ms
Stream size : 61.7 MiB (5%)
Language : English
Default : Yes
Forced : No

Text
ID : 3
Format : UTF-8
Codec ID : S_TEXT/UTF8
Codec ID/Info : UTF-8 Plain Text
Duration : 57 min 23 s
Bit rate : 42 b/s
Count of elements : 510
Stream size : 17.7 KiB (0%)
Language : English
Default : No
Forced : No
Screenshots

BBC - Spy in the Wild: Series 2 (2020)

BBC - Spy in the Wild: Series 2 (2020)

Welcome to my blog - daily update!

BBC - Spy in the Wild: Series 2 (2020)