History Channel - Stan Lees Superhumans: Season 2 (2012)

Posted By: Tutorial
History Channel - Stan Lees Superhumans: Season 2 (2012)

History Channel - Stan Lees Superhumans: Season 2 (2012)
HDTV | 1278 x 720 | .MKV/AVC @ 2824 Kbps | 13x~44mn | English AC-3 384 Kbps, 2 channels | 14.7 GB
Genre: Documentary

Throughout history, the forces of evolution and genetic mutation have endowed humans with astonishing new abilities and features. It's a process that continues to this day, and nowhere is it more evident than in the fascinating world of Stan Lee's Superhumans.
Co-hosted by Stan Lee, the legendary creator of the X-Men, the series scours the globe for the real-life counterparts of Lee's characters - people with unique genetic traits that translate into remarkable powers. These include a Shaolin monk with an unbreakable body, a man who may be the greatest jumper in the world and another who can control sharks. In each episode, these "superhumans" undergo tests that may help explain their amazing gifts, while viewers discover the long history of people with extraordinary powers. Daniel Browning Smith, who's been dubbed the most flexible man in the world, hosts this thrilling journey into the farthest reaches of humankind.

Part 1: Unbreakable
In a temple in Kuala Lumpur, Shaolin monk Hu Qiong demonstrates his unbreakable body by smashing steel on his head, and spears in his throat. Bio-mechanic professor Dan Voss measures the forces at play to prove this is real.

Part 2: Shark Master
Daniel searches out "The Spring," an unlikely internet star from Wisconsin, to see if his talents are for real. Could he be the greatest jumper on the planet? An American born fighter claims he can break baseball bats in half with a single kick.

Part 3: Steel Face

Daniel Browning Smith is in Vegas to meet Brian Jackson who blows up a hot water bottle until it explodes. Daniel takes Brian to a lung specialist to measure the power output and pressure of his lungs.

Part 4: Yo Yo Ninja
In his quest to find people with real superpowers, Daniel Browning Smith meets some extraordinary individuals including the man with the strongest neck on earth.

Part 5: Super Special
The search is on to find more real-life superhumans! First Daniel is in Canada to meet Pat Poviliatis and a man who boasts his hands are tough enough to withstand the deadly jaws of a steel-tooted cougar-trap.

Part 6: Human Shield

Rene Richter says he has the strongest teeth on earth, capable of bending coins. But we discover his strength lies in his jaw, which Rene says allows him to lift over 1000lbs.

Part 7: Spider Power
At high altitude, low oxygen causes hypoxia, altitude sickness and very quickly, death. But Ang Rita Sherpa claims he's climbed Everest 10 times with no extra oxygen.

Part 8: Beast Masters

Dean Sheldon claims to be immune to America's deadliest scorpion venom. Daniel asks him to prove it by collecting 22 wild scorpions form the Arizona desert, and putting them in his mouth, all at once!

Part 9: Rocket Blader
Stan sends Daniel to meet 38-year-old German speed fanatic Dirk Auer, who claims that with his incredible turbo powered rocket backpack and skates, he can reach amazing speeds.

Part 10: Robo Men

A man with one oversize arm battles a robot; a specially designed suit turns a man into a human roller skate; a knife thrower makes a bold claim; a martial artist uses his hands as a weapon of destruction.

Part 11: Birdman
The ultimate superpower is flight, and Yokke Sommer is rumored to have achieved it–coming as close to a bird as any human has ever achieved. Daniel meets him on a 1000ft cliff in Norway, the site of many tragic deaths.

Part 12: Supersight

Daniel travels to Sardinia to meet free diver Stig Severinson who wants to take breath holding beyond all known human capabilities. He says he wants to hold his breath for over 20 minutes!

Part 13: Finger of Steel
Daniel meets Ho in Kuala Lumpur, where he demonstrates his incredible ability, smashing through the rock hard exterior of a coconut with his index finger. Dan Voss measures the force of his "finger of steel."

General
Unique ID : 141162560774554620879828326714282523097 (0x6A32EB979D6A168D1F38D7C8D0A2B9D9)
Complete name : Stan.Lees.Superhumans.Series.2.01of13.Unbreakable.mkv
Format : Matroska
Format version : Version 2
File size : 1.01 GiB
Duration : 43mn 59s
Overall bit rate : 3 273 Kbps
Encoded date : UTC 2011-10-28 04:11:25
Writing application : mkvmerge v4.0.0 ('The Stars were mine') built on Aug 7 2011 22:31:52
Writing library : libebml v1.2.1 + libmatroska v1.2.0

Video
ID : 1
Format : AVC
Format/Info : Advanced Video Codec
Format profile : High@L4.1
Format settings, CABAC : Yes
Format settings, ReFrames : 5 frames
Codec ID : V_MPEG4/ISO/AVC
Duration : 43mn 59s
Bit rate : 2 824 Kbps
Width : 1 278 pixels
Height : 720 pixels
Display aspect ratio : 16:9
Frame rate : 25.000 fps
Color space : YUV
Chroma subsampling : 4:2:0
Bit depth : 8 bits
Scan type : Progressive
Bits/(Pixel*Frame) : 0.123
Stream size : 889 MiB (86%)
Writing library : x264 core 119 r2106 07efeb4
Encoding settings : cabac=1 / ref=5 / deblock=1:0:0 / analyse=0x3:0x113 / me=umh / subme=8 / psy=1 / psy_rd=1.00:0.00 / mixed_ref=1 / me_range=16 / chroma_me=1 / trellis=1 / 8x8dct=1 / cqm=0 / deadzone=21,11 / fast_pskip=1 / chroma_qp_offset=-2 / threads=12 / sliced_threads=0 / nr=0 / decimate=1 / interlaced=0 / bluray_compat=0 / constrained_intra=0 / bframes=3 / b_pyramid=2 / b_adapt=2 / b_bias=0 / direct=3 / weightb=1 / open_gop=0 / weightp=2 / keyint=250 / keyint_min=25 / scenecut=40 / intra_refresh=0 / rc_lookahead=50 / rc=crf / mbtree=1 / crf=20.0 / qcomp=0.60 / qpmin=0 / qpmax=69 / qpstep=4 / ip_ratio=1.40 / aq=1:1.00
Language : English
Default : No
Forced : No

Audio
ID : 2
Format : AC-3
Format/Info : Audio Coding 3
Mode extension : CM (complete main)
Codec ID : A_AC3
Duration : 43mn 59s
Bit rate mode : Constant
Bit rate : 384 Kbps
Channel(s) : 2 channels
Channel positions : Front: L R
Sampling rate : 48.0 KHz
Bit depth : 16 bits
Compression mode : Lossy
Stream size : 121 MiB (12%)
Default : Yes
Forced : No
Screenshots

History Channel - Stan Lees Superhumans: Season 2 (2012)

History Channel - Stan Lees Superhumans: Season 2 (2012)

History Channel - Stan Lees Superhumans: Season 2 (2012)

History Channel - Stan Lees Superhumans: Season 2 (2012)

Welcome to my blog - daily update!

History Channel - Stan Lees Superhumans: Season 2 (2012)