Tags
Language
Tags

Stan & Ollie (2018)

Posted By: Tavaz
Stan & Ollie (2018)

Stan & Ollie (2018)
MKV | 1920x804 | English | H264 @ 12361 kbps | E-AC-3 @ 1024 kbps | 1 h 37 min | 9.15 GiB
Subtitles: Romanian, Portuguese, Dutch, Spanish, English
Genre: Comedy, Drama

With their golden era long behind them, comedy duo Stan Laurel and Oliver Hardy embark on a variety hall tour of Britain and Ireland. Despite the pressures of a hectic schedule, and with the support of their wives Lucille and Ida – a formidable double act in their own right – the pair's love of performing, as well as for each other, endures as they secure their place in the hearts of their adoring public

Stan Ollie 2018 1080p BluRay DD5.1 x264-DON=1167f4de3b86bb54a0df5faeb0a8b149d5b394b6.part1.rar (4.8 GB)
Stan Ollie 2018 1080p BluRay DD5.1 x264-DON=1167f4de3b86bb54a0df5faeb0a8b149d5b394b6.part2.rar (4.4 GB)



General
Complete name : ./84ce1d5bef254c699a4b77a4f481d4ed.mkv
Format : Matroska
Format version : Version 4 / Version 2
File size : 9.15 GiB
Duration : 1 h 37 min
Overall bit rate : 13.4 Mb/s
Encoded date : UTC 2019-03-25 15:42:32
Writing application : mkvmerge v30.1.0 ('Forever And More') 64-bit
Writing library : libebml v1.3.6 + libmatroska v1.4.9

Video
ID : 1
Format : AVC
Format/Info : Advanced Video Codec
Format profile : High@L4.1
Format settings : CABAC / 5 Ref Frames
Format settings, CABAC : Yes
Format settings, RefFrames : 5 frames
Codec ID : V_MPEG4/ISO/AVC
Duration : 1 h 37 min
Bit rate : 12.4 Mb/s
Width : 1 920 pixels
Height : 804 pixels
Display aspect ratio : 2.40:1
Frame rate mode : Constant
Frame rate : 23.976 (24000/1001) FPS
Color space : YUV
Chroma subsampling : 4:2:0
Bit depth : 8 bits
Scan type : Progressive
Bits/(Pixel*Frame) : 0.334
Stream size : 8.45 GiB (92%)
Writing library : x264 core 157 r2867+103 0d6443f t_mod_Custom_2 [8-bit@all X86_64]
Encoding settings : cabac=1 / ref=5 / deblock=1:-3:-3 / analyse=0x3:0x133 / me=umh / subme=10 / psy=1 / fade_compensate=0.00 / psy_rd=1.00:0.00 / mixed_ref=1 / me_range=32 / chroma_me=1 / trellis=2 / 8x8dct=1 / cqm=0 / deadzone=21,11 / fast_pskip=0 / chroma_qp_offset=-2 / threads=12 / lookahead_threads=2 / sliced_threads=0 / nr=0 / decimate=0 / interlaced=0 / bluray_compat=0 / constrained_intra=0 / fgo=0 / bframes=8 / b_pyramid=2 / b_adapt=2 / b_bias=0 / direct=3 / weightb=1 / open_gop=0 / weightp=2 / keyint=250 / keyint_min=23 / scenecut=40 / intra_refresh=0 / rc=crf / mbtree=0 / crf=15.4000 / qcomp=0.60 / qpmin=0:0:0 / qpmax=69:69:69 / qpstep=4 / ip_ratio=1.35 / pb_ratio=1.25 / aq=3:0.80 / aq-sensitivity=10.00 / aq-factor=1.00:1.00:1.00 / aq2=0 / aq3=0 / zones=129777,129879,crf=13.6/130484,130510,crf=13.6/130996,131184,crf=13.6/132261,132335,crf=13.9
Language : English
Default : Yes
Forced : No

Audio
ID : 2
Format : E-AC-3
Format/Info : Enhanced Audio Coding 3
Format settings, Endianness : Big
Codec ID : A_EAC3
Duration : 1 h 37 min
Bit rate mode : Constant
Bit rate : 1 024 kb/s
Channel(s) : 6 channels
Channel positions : Front: L C R, Side: L R, LFE
Sampling rate : 48.0 kHz
Frame rate : 187.500 FPS (256 SPF)
Compression mode : Lossy
Stream size : 716 MiB (8%)
Language : English
Service kind : Complete Main
Default : Yes
Forced : No

Text #1
ID : 3
Format : UTF-8
Codec ID : S_TEXT/UTF8
Codec ID/Info : UTF-8 Plain Text
Duration : 1 h 28 min
Bit rate : 73 b/s
Count of elements : 1446
Stream size : 47.4 KiB (0%)
Language : English
Default : No
Forced : No

Text #2
ID : 4
Format : UTF-8
Codec ID : S_TEXT/UTF8
Codec ID/Info : UTF-8 Plain Text
Duration : 1 h 34 min
Bit rate : 79 b/s
Count of elements : 1753
Stream size : 55.2 KiB (0%)
Title : SDH
Language : English
Default : No
Forced : No

Text #3
ID : 5
Format : UTF-8
Codec ID : S_TEXT/UTF8
Codec ID/Info : UTF-8 Plain Text
Duration : 1 h 31 min
Bit rate : 61 b/s
Count of elements : 1074
Stream size : 41.1 KiB (0%)
Language : Dutch
Default : No
Forced : No

Text #4
ID : 6
Format : UTF-8
Codec ID : S_TEXT/UTF8
Codec ID/Info : UTF-8 Plain Text
Duration : 1 h 35 min
Bit rate : 63 b/s
Count of elements : 1412
Stream size : 44.8 KiB (0%)
Title : Brazilian
Language : Portuguese
Default : No
Forced : No

Text #5
ID : 7
Format : UTF-8
Codec ID : S_TEXT/UTF8
Codec ID/Info : UTF-8 Plain Text
Duration : 1 h 31 min
Bit rate : 71 b/s
Count of elements : 1398
Stream size : 47.9 KiB (0%)
Language : Romanian
Default : No
Forced : No

Text #6
ID : 8
Format : UTF-8
Codec ID : S_TEXT/UTF8
Codec ID/Info : UTF-8 Plain Text
Duration : 1 h 35 min
Bit rate : 62 b/s
Count of elements : 1472
Stream size : 44.0 KiB (0%)
Title : Latin American
Language : Spanish
Default : No
Forced : No

Menu
00:00:00.000 : :Chapter 1
00:09:06.546 : :Chapter 2
00:14:01.674 : :Chapter 3
00:18:18.514 : :Chapter 4
00:25:02.334 : :Chapter 5
00:32:23.942 : :Chapter 6
00:37:37.672 : :Chapter 7
00:43:44.831 : :Chapter 8
00:52:04.872 : :Chapter 9
01:00:18.448 : :Chapter 10
01:03:37.689 : :Chapter 11
01:07:50.817 : :Chapter 12
01:13:55.139 : :Chapter 13
01:16:20.076 : :Chapter 14
01:22:15.973 : :Chapter 15
01:25:41.887 : :Chapter 16





Stan & Ollie (2018)


Stan & Ollie (2018)


Stan & Ollie (2018)


Stan & Ollie (2018)


Stan & Ollie (2018)