Tags
Language
Tags

Stan & Ollie (2018)

Posted By: Barfin
1080p (FullHD) / BDRip IMDb
Stan & Ollie (2018)

Stan & Ollie (2018)
BDRip 1080p | MKV / AVC@6942 kb/s | 1920x800 | 1h 38mn
Deutsch (dubbed): AC3, DTS, 1509 kb/s (6 ch) | Subtitles: Deutsch | 5.60 GB
Genre: Biography | Comedy | Drama | History

Stan Laurel (Steve Coogan) und Oliver Hardy (John C. Reilly), das beliebteste Komikerduo der Welt, befindet sich 1953 auf einer Tour durch Großbritannien. Ihre besten Jahre als die „Könige der Hollywood-Komödie“ hinter sich, sehen sie sich mit einer ungewissen Zukunft konfrontiert. Zu Beginn ihrer Tour kreuz und quer durchs Land, sind die Zuschauerränge enttäuschend leer. Doch durch ihr Talent, sich immer wieder gegenseitig zum Lachen zu bringen, beginnt der Funke auf ihr Publikum überzuspringen. Es gelingt ihnen durch den Charme und die Brillanz ihrer Aufführungen, alte Fans zurückzugewinnen und neue zu begeistern: Die Tour wird zu einem Riesenerfolg! Doch die Geister ihrer Vergangenheit holen sie ein und stellen Stan und Ollies Freundschaft auf eine Bewährungsprobe….


General
Unique ID : 235687198564947899375460202755154442131 (0xB14FB40CF174AB2796E4C6EBE3FEF793)
Complete name : C:\Barfin\Films\Stan.and.Ollie.2018.German.DTS.1080p.BluRay.x264.mkv
Format : Matroska
Format version : Version 2
File size : 5.60 GiB
Duration : 1 h 38 min
Overall bit rate mode : Variable
Overall bit rate : 8 164 kb/s
Encoded date : UTC 2019-09-23 11:15:10
Writing application : mkvmerge v7.8.0 ('River Man') 32bit built on Apr 3 2015 12:11:22
Writing library : libebml v1.3.1 + libmatroska v1.4.2

Video
ID : 1
Format : AVC
Format/Info : Advanced Video Codec
Format profile : High@L4.1
Format settings : CABAC / 3 Ref Frames
Format settings, CABAC : Yes
Format settings, Reference : 3 frames
Codec ID : V_MPEG4/ISO/AVC
Duration : 1 h 38 min
Bit rate mode : Variable
Bit rate : 6 492 kb/s
Maximum bit rate : 15.0 Mb/s
Width : 1 920 pixels
Height : 800 pixels
Display aspect ratio : 2.40:1
Frame rate mode : Constant
Frame rate : 24.000 FPS
Color space : YUV
Chroma subsampling : 4:2:0
Bit depth : 8 bits
Scan type : Progressive
Bits/(Pixel*Frame) : 0.176
Stream size : 4.45 GiB (80%)
Writing library : x264 core 157 r2935 545de2f
Encoding settings : cabac=1 / ref=4 / deblock=1:0:0 / analyse=0x3:0x133 / me=umh / subme=9 / psy=1 / psy_rd=1.00:0.00 / mixed_ref=1 / me_range=24 / chroma_me=1 / trellis=2 / 8x8dct=1 / cqm=0 / deadzone=21,11 / fast_pskip=1 / chroma_qp_offset=-2 / threads=25 / lookahead_threads=2 / sliced_threads=0 / slices=4 / nr=0 / decimate=1 / interlaced=0 / bluray_compat=1 / constrained_intra=0 / bframes=3 / b_pyramid=1 / b_adapt=2 / b_bias=0 / direct=3 / weightb=1 / open_gop=1 / weightp=1 / keyint=23 / keyint_min=1 / scenecut=40 / intra_refresh=0 / rc_lookahead=24 / rc=crf / mbtree=0 / crf=17.0 / qcomp=0.60 / qpmin=0 / qpmax=51 / qpstep=4 / vbv_maxrate=15000 / vbv_bufsize=15000 / crf_max=0.0 / nal_hrd=vbr / filler=0 / ip_ratio=1.40 / pb_ratio=1.30 / aq=0
Language : German
Default : Yes
Forced : No
Color range : Limited
Color primaries : BT.709
Transfer characteristics : BT.709
Matrix coefficients : BT.709

Audio
ID : 2
Format : DTS
Format/Info : Digital Theater Systems
Codec ID : A_DTS
Duration : 1 h 38 min
Bit rate mode : Constant
Bit rate : 1 509 kb/s
Channel(s) : 6 channels
Channel layout : C L R Ls Rs LFE
Sampling rate : 48.0 kHz
Frame rate : 93.750 FPS (512 SPF)
Bit depth : 24 bits
Compression mode : Lossy
Stream size : 1.04 GiB (18%)
Language : German
Default : Yes
Forced : No

Text #1
ID : 3
Format : UTF-8
Codec ID : S_TEXT/UTF8
Codec ID/Info : UTF-8 Plain Text
Title : German Forced
Language : German
Default : Yes
Forced : Yes

Text #2
ID : 4
Format : VobSub
Muxing mode : zlib
Codec ID : S_VOBSUB
Codec ID/Info : Picture based subtitle format used on DVDs
Title : German Full
Language : German
Default : No
Forced : No

Menu
00:00:00.000 : de:Kapitel 01
00:01:47.708 : de:Kapitel 02
00:09:22.625 : de:Kapitel 03
00:17:11.083 : de:Kapitel 04
00:23:59.792 : de:Kapitel 05
00:29:11.500 : de:Kapitel 06
00:34:15.625 : de:Kapitel 07
00:42:04.250 : de:Kapitel 08
00:48:49.375 : de:Kapitel 09
00:54:18.958 : de:Kapitel 10
01:02:06.625 : de:Kapitel 11
01:06:26.667 : de:Kapitel 12
01:14:00.917 : de:Kapitel 13
01:22:21.292 : de:Kapitel 14
01:28:39.917 : de:Kapitel 15
01:32:56.000 : de:Kapitel 16




Screenshots

Stan & Ollie (2018)

Stan & Ollie (2018)

Stan & Ollie (2018)