Star Wars: Episode VIII - The Last Jedi (2017)

Posted By: Without
1080p (FullHD) / BluRay Remux IMDb
Star Wars: Episode VIII - The Last Jedi (2017)

Star Wars: Episode VIII - The Last Jedi (2017)
BD-Remux | MKV | 1920x1080 | AVC@30.7 Mb/s | English DTS-HD MA@4629 kb/s (8 ch)
English AC3@192 kb/s (Commentary) (2 ch) | 2 h 31 min | 38.0 GB
Subs: English, French, Spanish
Genre: Action, Adventure, Fantasy

Rey develops her newly discovered abilities with the guidance of Luke Skywalker, who is unsettled by the strength of her powers. Meanwhile, the Resistance prepares for battle with the First Order.

IMDB - Nominated for 4 Oscars. Another 5 wins & 45 nominations.


General
Star.Wars.Episode.VIII.The.Last.Jedi.2017.BluRay.1080p.DTS-HD.MA.7.1.AVC.REMUX-FraMeSToR.mkv
Format : Matroska
Format version : Version 4 / Version 2
File size : 38.0 GiB
Duration : 2 h 31 min
Overall bit rate mode : Variable
Overall bit rate : 35.8 Mb/s
Movie name : Star Wars: Episode VIII - The Last Jedi
Encoded date : UTC 2018-03-13 15:50:11
Writing application : mkvmerge v21.0.0 ('Tardigrades Will Inherit The Earth') 64-bit
Writing library : libebml v1.3.5 + libmatroska v1.4.8

Video
ID : 1
Format : AVC
Format/Info : Advanced Video Codec
Format profile : High@L4.1
Format settings, CABAC : Yes
Format settings, ReFrames : 4 frames
Codec ID : V_MPEG4/ISO/AVC
Duration : 2 h 31 min
Bit rate mode : Variable
Bit rate : 30.7 Mb/s
Maximum bit rate : 37.0 Mb/s
Width : 1 920 pixels
Height : 1 080 pixels
Display aspect ratio : 16:9
Frame rate mode : Constant
Frame rate : 23.976 (24000/1001) FPS
Color space : YUV
Chroma subsampling : 4:2:0
Bit depth : 8 bits
Scan type : Progressive
Bits/(Pixel*Frame) : 0.618
Stream size : 32.6 GiB (86%)
Default : Yes
Forced : No

Audio #1
ID : 2
Format : DTS
Format/Info : Digital Theater Systems
Format profile : MA / Core
Mode : 16
Format settings, Endianness : Big
Codec ID : A_DTS
Duration : 2 h 31 min
Bit rate mode : Variable / Constant
Bit rate : 4 629 kb/s / 1 509 kb/s
Channel(s) : 8 channels / 6 channels
Channel positions : Front: L C R, Side: L R, Back: L R, LFE / Front: L C R, Side: L R, LFE
Sampling rate : 48.0 kHz
Frame rate : 93.750 FPS (512 spf)
Bit depth : 24 bits
Compression mode : Lossless / Lossy
Stream size : 4.91 GiB (13%)
Title : DTS-HD MA 7.1
Language : English
Default : Yes
Forced : No

Audio #2
ID : 3
Format : AC-3
Format/Info : Audio Coding 3
Mode extension : CM (complete main)
Format settings, Endianness : Big
Codec ID : A_AC3
Duration : 2 h 31 min
Bit rate mode : Constant
Bit rate : 192 kb/s
Channel(s) : 2 channels
Channel positions : Front: L R
Sampling rate : 48.0 kHz
Frame rate : 31.250 FPS (1536 spf)
Bit depth : 16 bits
Compression mode : Lossy
Stream size : 209 MiB (1%)
Title : Commentary by Writer/Director Rian Johnson
Language : English
Default : No
Forced : No

Text #1
ID : 4
Format : PGS
Codec ID : S_HDMV/PGS
Codec ID/Info : Picture based subtitle format used on BDs/HD-DVDs
Duration : 2 h 23 min
Bit rate : 31.0 kb/s
Count of elements : 3796
Stream size : 31.8 MiB (0%)
Title : English (SDH)
Language : English
Default : No
Forced : No

Text #2
ID : 5
Format : PGS
Codec ID : S_HDMV/PGS
Codec ID/Info : Picture based subtitle format used on BDs/HD-DVDs
Duration : 2 h 25 min
Bit rate : 25.8 kb/s
Count of elements : 3416
Stream size : 26.8 MiB (0%)
Title : French
Language : French
Default : No
Forced : No

Text #3
ID : 6
Format : PGS
Codec ID : S_HDMV/PGS
Codec ID/Info : Picture based subtitle format used on BDs/HD-DVDs
Duration : 2 h 22 min
Bit rate : 25.7 kb/s
Count of elements : 3182
Stream size : 26.2 MiB (0%)
Title : Spanish (Latin American)
Language : Spanish
Default : No
Forced : No

Text #4
ID : 7
Format : PGS
Codec ID : S_HDMV/PGS
Codec ID/Info : Picture based subtitle format used on BDs/HD-DVDs
Duration : 2 h 24 min
Bit rate : 70.6 kb/s
Count of elements : 4798
Stream size : 72.8 MiB (0%)
Title : English (Commentary)
Language : English
Default : No
Forced : No

Text #5
ID : 8
Format : PGS
Codec ID : S_HDMV/PGS
Codec ID/Info : Picture based subtitle format used on BDs/HD-DVDs
Duration : 2 h 24 min
Bit rate : 58.1 kb/s
Count of elements : 4758
Stream size : 59.9 MiB (0%)
Title : French (Commentary)
Language : French
Default : No
Forced : No

Text #6
ID : 9
Format : PGS
Codec ID : S_HDMV/PGS
Codec ID/Info : Picture based subtitle format used on BDs/HD-DVDs
Duration : 2 h 24 min
Bit rate : 59.7 kb/s
Count of elements : 4758
Stream size : 61.6 MiB (0%)
Title : Spanish (Commentary)
Language : Spanish
Default : No
Forced : No

Menu
00:00:00.000 : en:Opening Logo
00:00:18.644 : en:The Last Jedi
00:01:45.731 : en:Resistance Evacuation
00:03:11.817 : en:Poe Attacks
00:07:43.296 : en:Bombing Run
00:12:48.434 : en:Finn Awakens
00:13:44.574 : en:Luke's Refusal
00:16:29.280 : en:Snoke's Rebuke
00:19:59.281 : en:Island Life
00:22:51.370 : en:"Time For The Jedi To End"
00:26:04.980 : en:"Dead Heroes. No Leaders"
00:27:22.850 : en:First Order Ambush
00:31:24.758 : en:Survival
00:32:54.681 : en:Falcon At Night
00:35:27.667 : en:Vice Admiral Holdo
00:38:11.498 : en:Finn Meets Rose
00:41:53.428 : en:A Conspiracy Forms
00:44:29.542 : en:Force Connection
00:46:51.475 : en:Lessons In The Force
00:51:41.932 : en:Reconnection
00:53:50.060 : en:Arrival At Canto Bight
00:55:41.505 : en:The Race Begins
00:57:39.581 : en:Lightsaber Training
00:59:16.636 : en:Luke's History Lesson
01:02:05.847 : en:The Shrinking Fleet
01:03:07.701 : en:Meeting DJ
01:05:41.729 : en:Inside The Stables
01:07:03.478 : en:Fathier Escape
01:10:25.721 : en:Kylo's History Lesson
01:13:30.323 : en:The Mirror Cave
01:17:43.450 : en:Rey VS. Luke
01:20:53.057 : en:An Old Friend
01:24:17.970 : en:Making The Deal
01:26:23.220 : en:Poe Confronts Holdo
01:27:59.524 : en:Plotting Next Moves
01:30:49.361 : en:Inside The Mega-Destroyer
01:32:54.569 : en:Reversals
01:35:53.706 : en:Abandon Ship
01:37:10.616 : en:Rey Faces Snoke
01:39:12.864 : en:Darkness Grows
01:42:07.663 : en:Kylo's Choice
01:45:03.714 : en:Praetorian Duel
01:49:35.694 : en:Holdo's Sacrifice
01:52:20.609 : en:Chaos In The Hangar
01:56:04.749 : en:Reunion On Crait
01:58:52.083 : en:The Battle Of Crait
02:03:11.134 : en:Siege Cannon
02:06:39.759 : en:Master Skywalker
02:11:43.604 : en:"Lifting Rocks"
02:15:12.104 : en:Sunset
02:20:16.700 : en:The Resistance Continues
02:23:39.694 : en:End Credits


Screenshots

Star Wars: Episode VIII - The Last Jedi (2017)

Star Wars: Episode VIII - The Last Jedi (2017)

Star Wars: Episode VIII - The Last Jedi (2017)

Star Wars: Episode VIII - The Last Jedi (2017)

Star Wars: Episode VIII - The Last Jedi (2017)

Star Wars: Episode VIII - The Last Jedi (2017)

Star Wars: Episode VIII - The Last Jedi (2017)

Star Wars: Episode VIII - The Last Jedi (2017)

Star Wars: Episode VIII - The Last Jedi (2017)

Star Wars: Episode VIII - The Last Jedi (2017)


Come Visit My Blog (•‿•)