Tags
Language
Tags

Star Wars: The Rise Of Skywalker (2019) [Digital EXTRAS]

Posted By: Without
1080p (FullHD) / WEB-DL IMDb
Star Wars: The Rise Of Skywalker (2019) [Digital EXTRAS]

Star Wars: The Rise Of Skywalker (2019)
WEB-DL | MKV | 2 h 56 min | 2.26 GB | 720x404 | AVC@1698 kb/s | English AAC@128 kb/s, 2 ch
WEB-DL 720p | MKV | 2 h 56 min | 7.11 GB | 1280x720 | AVC@5118 kb/s | English AC3@640 kb/s, 6 ch
WEB-DL 1080p | MKV | 2 h 56 min | 12.0 GB | 1920x1080 | AVC@9069 kb/s | English AC3@640 kb/s, 6 ch
Subs: English
Genre: Action | Adventure | Fantasy | Sci-Fi

The surviving members of the resistance face the First Order once again, and the legendary conflict between the Jedi and the Sith reaches its peak bringing the Skywalker saga to its end.

IMDB - Nominated for 3 Oscars. Another 6 wins & 33 nominations.



General
Star.Wars.Episode.IX-The.Rise.of.Skywalker.2019.Digital.Extras.AMZN.WEB-DL.AAC2.0.H.264-NTG.mkv
Format : Matroska
Format version : Version 4 / Version 2
File size : 2.26 GB
Duration : 2 h 56 min
Overall bit rate : 1829 kb/s
Encoded date : UTC 2020-03-14 07:42:29
Writing application : mkvmerge v21.0.0 ('Tardigrades Will Inherit The Earth') 64-bit
Writing library : libebml v1.3.5 + libmatroska v1.4.8

Video
ID : 1
Format : AVC
Format/Info : Advanced Video Codec
Format profile : Main@L3
Format settings, CABAC : Yes
Format settings, ReFrames : 4 frames
Codec ID : V_MPEG4/ISO/AVC
Duration : 2 h 56 min
Bit rate mode : Constant
Bit rate : 1698 kb/s
Nominal bit rate : 2000 kb/s
Width : 720 pixels
Height : 404 pixels
Display aspect ratio : 16:9
Frame rate mode : Constant
Frame rate : 23.976 (24000/1001) FPS
Color space : YUV
Chroma subsampling : 4:2:0
Bit depth : 8 bits
Scan type : Progressive
Bits/(Pixel*Frame) : 0.244
Stream size : 2.10 GB (93%)
Default : Yes
Forced : No
Color range : Limited
Color primaries : BT.709
Transfer characteristics : BT.709
Matrix coefficients : BT.709

Audio
ID : 2
Format : AAC
Format/Info : Advanced Audio Codec
Format profile : LC
Codec ID : A_AAC
Duration : 2 h 56 min
Bit rate : 128 kb/s
Channel(s) : 2 channels
Channel positions : Front: L R
Sampling rate : 48.0 kHz
Frame rate : 46.875 FPS (1024 spf)
Compression mode : Lossy
Delay relative to video : 8 ms
Stream size : 162 MB (7%)
Language : English
Default : Yes
Forced : No

Text #1
ID : 3
Format : UTF-8
Codec ID : S_TEXT/UTF8
Codec ID/Info : UTF-8 Plain Text
Duration : 2 h 56 min
Bit rate : 103 b/s
Count of elements : 2966
Stream size : 133 KiB (0%)
Language : English
Default : No
Forced : No

Text #2
ID : 4
Format : UTF-8
Codec ID : S_TEXT/UTF8
Codec ID/Info : UTF-8 Plain Text
Duration : 2 h 56 min
Bit rate : 109 b/s
Count of elements : 3122
Stream size : 142 KiB (0%)
Title : SDH
Language : English
Default : No
Forced : No

Menu
00:00:00.000 : en:Documentary: The Skywalker Legacy
02:06:15.496 : en:Pasaana Pursuit: Creating the Speeder Chase
02:20:37.496 : en:Aliens in the Desert
02:26:37.496 : en:D-O: Key to the Past
02:32:11.496 : en:Warwick & Son
02:37:47.496 : en:Cast of Creatures
02:45:34.496 : en:Digital Exclusive: The Maestro’s Finale


General
Star.Wars.Episode.IX-The.Rise.of.Skywalker.2019.Digital.Extras.720p.AMZN.WEB-DL.DDP5.1.H.264-NTG.mkv
Format : Matroska
Format version : Version 4 / Version 2
File size : 7.11 GB
Duration : 2 h 56 min
Overall bit rate : 5760 kb/s
Encoded date : UTC 2020-03-14 07:27:13
Writing application : mkvmerge v21.0.0 ('Tardigrades Will Inherit The Earth') 64-bit
Writing library : libebml v1.3.5 + libmatroska v1.4.8

Video
ID : 1
Format : AVC
Format/Info : Advanced Video Codec
Format profile : High@L3.1
Format settings, CABAC : Yes
Format settings, ReFrames : 4 frames
Codec ID : V_MPEG4/ISO/AVC
Duration : 2 h 56 min
Bit rate mode : Constant
Bit rate : 5118 kb/s
Nominal bit rate : 6000 kb/s
Width : 1280 pixels
Height : 720 pixels
Display aspect ratio : 16:9
Frame rate mode : Constant
Frame rate : 23.976 (24000/1001) FPS
Color space : YUV
Chroma subsampling : 4:2:0
Bit depth : 8 bits
Scan type : Progressive
Bits/(Pixel*Frame) : 0.232
Stream size : 6.32 GB (89%)
Default : Yes
Forced : No
Color range : Limited
Color primaries : BT.709
Transfer characteristics : BT.709
Matrix coefficients : BT.709

Audio
ID : 2
Format : E-AC-3
Format/Info : Enhanced Audio Coding 3
Format settings, Endianness : Big
Codec ID : A_EAC3
Duration : 2 h 56 min
Bit rate mode : Constant
Bit rate : 640 kb/s
Channel(s) : 6 channels
Channel positions : Front: L C R, Side: L R, LFE
Sampling rate : 48.0 kHz
Frame rate : 187.500 FPS (256 spf)
Compression mode : Lossy
Delay relative to video : 8 ms
Stream size : 809 MB (11%)
Language : English
Default : Yes
Forced : No

Text #1
ID : 3
Format : UTF-8
Codec ID : S_TEXT/UTF8
Codec ID/Info : UTF-8 Plain Text
Duration : 2 h 56 min
Bit rate : 103 b/s
Count of elements : 2966
Stream size : 133 KiB (0%)
Language : English
Default : No
Forced : No

Text #2
ID : 4
Format : UTF-8
Codec ID : S_TEXT/UTF8
Codec ID/Info : UTF-8 Plain Text
Duration : 2 h 56 min
Bit rate : 109 b/s
Count of elements : 3122
Stream size : 142 KiB (0%)
Title : SDH
Language : English
Default : No
Forced : No

Menu
00:00:00.000 : en:Documentary: The Skywalker Legacy
02:06:15.496 : en:Pasaana Pursuit: Creating the Speeder Chase
02:20:37.496 : en:Aliens in the Desert
02:26:37.496 : en:D-O: Key to the Past
02:32:11.496 : en:Warwick & Son
02:37:47.496 : en:Cast of Creatures
02:45:34.496 : en:Digital Exclusive: The Maestro’s Finale


General
Star.Wars.Episode.IX-The.Rise.of.Skywalker.2019.Digital.Extras.1080p.AMZN.WEB-DL.DDP5.1.H.264-NTG.mkv
Format : Matroska
Format version : Version 4 / Version 2
File size : 12.0 GB
Duration : 2 h 56 min
Overall bit rate : 9711 kb/s
Encoded date : UTC 2020-03-14 07:13:49
Writing application : mkvmerge v21.0.0 ('Tardigrades Will Inherit The Earth') 64-bit
Writing library : libebml v1.3.5 + libmatroska v1.4.8

Video
ID : 1
Format : AVC
Format/Info : Advanced Video Codec
Format profile : High@L4
Format settings, CABAC : Yes
Format settings, ReFrames : 4 frames
Codec ID : V_MPEG4/ISO/AVC
Duration : 2 h 56 min
Bit rate mode : Constant
Bit rate : 9069 kb/s
Nominal bit rate : 10000 kb/s
Width : 1920 pixels
Height : 1080 pixels
Display aspect ratio : 16:9
Frame rate mode : Constant
Frame rate : 23.976 (24000/1001) FPS
Color space : YUV
Chroma subsampling : 4:2:0
Bit depth : 8 bits
Scan type : Progressive
Bits/(Pixel*Frame) : 0.182
Stream size : 11.2 GB (93%)
Default : Yes
Forced : No
Color range : Limited
Color primaries : BT.709
Transfer characteristics : BT.709
Matrix coefficients : BT.709

Audio
ID : 2
Format : E-AC-3
Format/Info : Enhanced Audio Coding 3
Format settings, Endianness : Big
Codec ID : A_EAC3
Duration : 2 h 56 min
Bit rate mode : Constant
Bit rate : 640 kb/s
Channel(s) : 6 channels
Channel positions : Front: L C R, Side: L R, LFE
Sampling rate : 48.0 kHz
Frame rate : 187.500 FPS (256 spf)
Compression mode : Lossy
Delay relative to video : 8 ms
Stream size : 809 MB (7%)
Language : English
Default : Yes
Forced : No

Text #1
ID : 3
Format : UTF-8
Codec ID : S_TEXT/UTF8
Codec ID/Info : UTF-8 Plain Text
Duration : 2 h 56 min
Bit rate : 103 b/s
Count of elements : 2966
Stream size : 133 KiB (0%)
Language : English
Default : No
Forced : No

Text #2
ID : 4
Format : UTF-8
Codec ID : S_TEXT/UTF8
Codec ID/Info : UTF-8 Plain Text
Duration : 2 h 56 min
Bit rate : 109 b/s
Count of elements : 3122
Stream size : 142 KiB (0%)
Title : SDH
Language : English
Default : No
Forced : No

Menu
00:00:00.000 : en:Documentary: The Skywalker Legacy
02:06:15.496 : en:Pasaana Pursuit: Creating the Speeder Chase
02:20:37.496 : en:Aliens in the Desert
02:26:37.496 : en:D-O: Key to the Past
02:32:11.496 : en:Warwick & Son
02:37:47.496 : en:Cast of Creatures
02:45:34.496 : en:Digital Exclusive: The Maestro’s Finale



WEB-DL Screenshots

Star Wars: The Rise Of Skywalker (2019) [Digital EXTRAS]

Star Wars: The Rise Of Skywalker (2019) [Digital EXTRAS]

Star Wars: The Rise Of Skywalker (2019) [Digital EXTRAS]


WEB-DL 720p Screenshots

Star Wars: The Rise Of Skywalker (2019) [Digital EXTRAS]

Star Wars: The Rise Of Skywalker (2019) [Digital EXTRAS]

Star Wars: The Rise Of Skywalker (2019) [Digital EXTRAS]


WEB-DL 1080p Screenshots

Star Wars: The Rise Of Skywalker (2019) [Digital EXTRAS]

Star Wars: The Rise Of Skywalker (2019) [Digital EXTRAS]

Star Wars: The Rise Of Skywalker (2019) [Digital EXTRAS]


Come Visit My Blog (•‿•)