Bigger Bang - Stephen Hawkings Favorite Places 2 (2018)

Posted By: notbanned
1080p (FullHD) / HDTV IMDb
Bigger Bang - Stephen Hawkings Favorite Places 2 (2018)

Bigger Bang - Stephen Hawkings Favorite Places 2 (2018)
HDTV | 1920x1080 | .MP4/AVC @ 6908 Kbps | 27 min 12 s | 1.31 GiB
Audio: English AAC 160 kbps, 2 channels | Subs: English
Genre: Documentary

Commander Stephen Hawking takes another journey in his space ship, the SS Hawking, this time to Venus, the Sun and out to the Eagle Nebula…but things don't always go according to the flight plan…

General
Complete name : Stephen.Hawkings.Favorite.Places.2.1080p.mp4
Format : MPEG-4
Format profile : Base Media
Codec ID : isom (isom)
File size : 1.31 GiB
Duration : 27 min 12 s
Overall bit rate mode : Variable
Overall bit rate : 6 879 kb/s

Video
ID : 1
Format : AVC
Format/Info : Advanced Video Codec
Format profile : High@L4.1
Format settings, CABAC : Yes
Format settings, ReFrames : 4 frames
Codec ID : avc1
Codec ID/Info : Advanced Video Coding
Duration : 27 min 12 s
Bit rate : 6 908 kb/s
Maximum bit rate : 18.9 Mb/s
Width : 1 920 pixels
Height : 1 080 pixels
Display aspect ratio : 16:9
Frame rate mode : Constant
Frame rate : 29.970 (30000/1001) FPS
Color space : YUV
Chroma subsampling : 4:2:0
Bit depth : 8 bits
Scan type : Progressive
Bits/(Pixel*Frame) : 0.111
Stream size : 1.28 GiB (98%)
Encoding settings : cabac=1 / ref=2 / deblock=1:0:0 / analyse=0x3:0x113 / me=hex / subme=4 / psy=1 / psy_rd=1.00:0.00 / mixed_ref=0 / me_range=16 / chroma_me=1 / trellis=1 / 8x8dct=1 / cqm=0 / deadzone=21,11 / fast_pskip=1 / chroma_qp_offset=0 / threads=6 / lookahead_threads=1 / sliced_threads=0 / nr=0 / decimate=1 / interlaced=0 / bluray_compat=0 / constrained_intra=0 / bframes=3 / b_pyramid=2 / b_adapt=1 / b_bias=0 / direct=1 / weightb=1 / open_gop=0 / weightp=1 / keyint=300 / keyint_min=30 / scenecut=40 / intra_refresh=0 / rc_lookahead=20 / rc=abr / mbtree=1 / bitrate=6908 / ratetol=1.0 / qcomp=0.60 / qpmin=0 / qpmax=69 / qpstep=4 / vbv_maxrate=62500 / vbv_bufsize=78125 / nal_hrd=none / ip_ratio=1.40 / aq=1:1.00
Encoded date : UTC 2018-01-08 15:35:30
Tagged date : UTC 2018-01-08 23:14:19
Color range : Limited
Color primaries : BT.709
Transfer characteristics : BT.709
Matrix coefficients : BT.709

Audio
ID : 2
Format : AAC
Format/Info : Advanced Audio Codec
Format profile : LC
Codec ID : 40
Duration : 27 min 12 s
Bit rate mode : Variable
Bit rate : 160 kb/s
Maximum bit rate : 206 kb/s
Channel(s) : 2 channels
Channel positions : Front: L R
Sampling rate : 44.1 kHz
Frame rate : 43.066 FPS (1024 spf)
Compression mode : Lossy
Stream size : 31.1 MiB (2%)
Encoded date : UTC 2018-01-08 23:14:16
Tagged date : UTC 2018-01-08 23:14:19

Text
ID : 3
Format : Timed Text
Codec ID : tx3g
Duration : 26 min 32 s
Bit rate mode : Variable
Bit rate : 53 b/s
Stream size : 10.3 KiB (0%)
Forced : No
Encoded date : UTC 2018-01-08 23:14:19
Tagged date : UTC 2018-01-08 23:14:19


Screenshots:

Bigger Bang - Stephen Hawkings Favorite Places 2 (2018)

Bigger Bang - Stephen Hawkings Favorite Places 2 (2018)

Bigger Bang - Stephen Hawkings Favorite Places 2 (2018)

Bigger Bang - Stephen Hawkings Favorite Places 2 (2018)