Still Too Fast to Race (2004)

Posted By: vivid23
Still Too Fast to Race (2004)

Still Too Fast to Race (2004)
DVDrip | 400x304 | AVI/XviD @ 1075 Kbps | 76mn | Audio: English AC3 192 kbps, 2 channels | Subs: None | 700 MB
Genre: Documentary

Even more from the full story behind the awesome Group B Rally cars, featuring mind-blowing contemporary and archive racing footage of these fire-breathing rocket ships at blistering speeds!

Declared “too fast to race” at the end of the 1986 season, the Group B cars changed the face of rallying! The Lancia Delta S4 could accelerate from 0-100km/h in 2-3 seconds on a gravel road, and Nigel Mansell is reputed to have said that the Peugeot 205 T16 could out-accelerate his F1 car!

Video
ID : 0
Format : MPEG-4 Visual
Format profile : Advanced Simple@L5
Format settings, BVOP : Yes
Format settings, QPel : No
Format settings, GMC : No warppoints
Format settings, Matrix : Default (H.263)
Codec ID : XVID
Codec ID/Hint : XviD
Duration : 1h 16mn
Bit rate : 1 075 Kbps
Width : 400 pixels
Height : 304 pixels
Display aspect ratio : 4:3
Frame rate : 25.000 fps
Color space : YUV
Chroma subsampling : 4:2:0
Bit depth : 8 bits
Scan type : Progressive
Compression mode : Lossy
Bits/(Pixel*Frame) : 0.354
Stream size : 591 MiB (84%)
Writing library : XviD 1.0.1 (UTC 2004-06-05)

Audio
ID : 1
Format : AC-3
Format/Info : Audio Coding 3
Mode extension : CM (complete main)
Codec ID : 2000
Duration : 1h 16mn
Bit rate mode : Constant
Bit rate : 192 Kbps
Channel(s) : 2 channels
Channel positions : Front: L R
Sampling rate : 48.0 KHz
Bit depth : 16 bits
Compression mode : Lossy
Stream size : 106 MiB (15%)
Alignment : Aligned on interleaves
Interleave, duration : 96 ms (2.40 video frames)
Interleave, preload duration : 96 ms
Language : English


Still Too Fast to Race (2004)

Still Too Fast to Race (2004)


Feel free to contact me when links are dead