Tags
Language
Tags

Straight Outta Compton (2015)

Posted By: Tavaz
1080p (FullHD) / BDRip IMDb
Straight Outta Compton (2015)

Straight Outta Compton (2015)
BDRip | MOV | 1920x800 | English | H264 @ 2789 kbps | AC-3 @ 640 kbps | 2 h 46 min | 4.00 GiB
Subtitles: English
Genre: Drama, Music

In 1987, five young men, using brutally honest rhymes and hardcore beats, put their frustration and anger about life in the most dangerous place in America into the most powerful weapon they had: their music. Taking us back to where it all began, Straight Outta Compton tells the true story of how these cultural rebels—armed only with their lyrics, swagger, bravado and raw talent—stood up to the authorities that meant to keep them down and formed the world’s most dangerous group, N.W.A. And as they spoke the truth that no one had before and exposed life in the hood, their voice ignited a social revolution that is still reverberating today.

93397f2938434f048b4ed07ced47c5d8.mp4 (4.0 GB)



General
Complete name : ./93397f2938434f048b4ed07ced47c5d8.mp4
Format : MPEG-4
Format profile : Base Media / Version 2
Codec ID : mp42 (isom/iso2/avc1/mp41)
File size : 4.00 GiB
Duration : 2 h 46 min
Overall bit rate mode : Variable
Overall bit rate : 3 434 kb/s
Movie name : Straight Outta Compton
Director : F. Gary Gray
Actor : O'Shea Jackson Jr. / Corey Hawkins / Jason Mitchell / Neil Brown Jr. / Aldis Hodge
Screenplay by : Andrea Berloff / Andrea Berloff / Jonathan Herman / S. Leigh Savidge / Alan Wenkus
Producer : David Engel / F. Gary Gray / Bill Straus / Victoria Thomas / Cindy Tolan
Genre : Drama
ContentType : Short Film
Description : The Story of N.W.A.
Recorded date : 2015-08-14
Encoded date : UTC 2036-02-06 06:28:16
Tagged date : UTC 2036-02-06 06:28:16
Writing application : LiMEY's Special Sauce v2.0
Cover : Yes
ContentRating : mpaa|R|400|
LongDescription : In 1987, five young men, using brutally honest rhymes and hardcore beats, put their frustration and anger about life in the most dangerous place in America into the most powerful weapon they had: their music. Taking us back to where it all began, Straight Outta Compton tells the true story of how these cultural rebels-armed only with their lyrics, swagger, bravado and raw talent-stood up to the authorities that meant to keep them down and formed the world's most dangerous group, N.W.A. And as they spoke the truth that no one had before and exposed life in the hood, their voice ignited a social revolution that is still reverberating today. Straight Outta Compton stars O’Shea Jackson Jr., Corey Hawkins and Jason Mitchell as Ice Cube, Dr. Dre and Eazy-E, and is directed by F. Gary Gray.

Video
ID : 1
Format : AVC
Format/Info : Advanced Video Codec
Format profile : High@L4.1
Format settings : CABAC / 4 Ref Frames
Format settings, CABAC : Yes
Format settings, RefFrames : 4 frames
Codec ID : avc1
Codec ID/Info : Advanced Video Coding
Duration : 2 h 46 min
Bit rate : 2 789 kb/s
Width : 1 920 pixels
Height : 800 pixels
Display aspect ratio : 2.40:1
Frame rate mode : Variable
Frame rate : 23.976 (24000/1001) FPS
Minimum frame rate : 23.974 FPS
Maximum frame rate : 23.981 FPS
Color space : YUV
Chroma subsampling : 4:2:0
Bit depth : 8 bits
Scan type : Progressive
Bits/(Pixel*Frame) : 0.076
Stream size : 3.25 GiB (81%)
Writing library : x264 core 142 r2479 dd79a61
Encoding settings : cabac=1 / ref=4 / deblock=1:-3:-3 / analyse=0x3:0x113 / me=esa / subme=10 / psy=1 / psy_rd=1.00:0.20 / mixed_ref=1 / me_range=32 / chroma_me=1 / trellis=2 / 8x8dct=1 / cqm=0 / deadzone=21,11 / fast_pskip=0 / chroma_qp_offset=-3 / threads=12 / lookahead_threads=1 / sliced_threads=0 / nr=0 / decimate=0 / interlaced=0 / bluray_compat=0 / constrained_intra=0 / bframes=5 / b_pyramid=2 / b_adapt=2 / b_bias=0 / direct=3 / weightb=1 / open_gop=0 / weightp=2 / keyint=240 / keyint_min=24 / scenecut=40 / intra_refresh=0 / rc_lookahead=60 / rc=2pass / mbtree=1 / bitrate=2789 / ratetol=1.0 / qcomp=0.60 / qpmin=0 / qpmax=69 / qpstep=4 / cplxblur=20.0 / qblur=0.5 / vbv_maxrate=34500 / vbv_bufsize=30000 / nal_hrd=none / filler=0 / ip_ratio=1.40 / aq=1:0.80
Encoded date : UTC 2036-02-06 06:28:16
Tagged date : UTC 2036-02-06 06:28:16
Color range : Limited
Color primaries : BT.709
Transfer characteristics : BT.709
Matrix coefficients : BT.709
Menus : 4

Audio
ID : 2
Format : AC-3
Format/Info : Audio Coding 3
Format settings, Endianness : Big
Codec ID : ac-3
Duration : 2 h 46 min
Bit rate mode : Constant
Bit rate : 640 kb/s
Channel(s) : 6 channels
Channel positions : Front: L C R, Side: L R, LFE
Sampling rate : 48.0 kHz
Frame rate : 31.250 FPS (1536 SPF)
Bit depth : 16 bits
Compression mode : Lossy
Stream size : 763 MiB (19%)
Title : Surround / Surround
Language : English
Service kind : Complete Main
Default : Yes
Alternate group : 1
Encoded date : UTC 2036-02-06 06:28:16
Tagged date : UTC 2036-02-06 06:28:16
Menus : 4

Text
ID : 3
Format : Timed Text
Muxing mode : sbtl
Codec ID : tx3g
Duration : 2 h 41 min
Bit rate mode : Variable
Bit rate : 102 b/s
Stream size : 121 KiB (0%)
Language : English
Default : Yes
Forced : No
Alternate group : 3
Encoded date : UTC 2036-02-06 06:28:16
Tagged date : UTC 2036-02-06 06:28:16
Menus : 4

Menu
ID : 4
Codec ID : text
Duration : 2 h 46 min
Language : English
Encoded date : UTC 2036-02-06 06:28:16
Tagged date : UTC 2036-02-06 06:28:16
Menu For : 1,2,3
00:00:00.000 : Chapter 1
00:05:46.304 : Chapter 2
00:09:53.843 : Chapter 3
00:17:30.424 : Chapter 4
00:26:33.175 : Chapter 5
00:35:38.428 : Chapter 6
00:47:26.844 : Chapter 7
00:55:37.000 : Chapter 8
01:04:40.502 : Chapter 9
01:11:25.948 : Chapter 10
01:18:59.234 : Chapter 11
01:25:45.599 : Chapter 12
01:33:54.879 : Chapter 13
01:44:20.171 : Chapter 14
01:54:01.585 : Chapter 15
02:02:54.409 : Chapter 16
02:16:10.579 : Chapter 17
02:26:22.774 : Chapter 18
02:33:05.468 : Chapter 19
02:39:20.384 : Chapter 20
Bit rate mode : VBR





Straight Outta Compton (2015)


Straight Outta Compton (2015)


Straight Outta Compton (2015)


Straight Outta Compton (2015)


Straight Outta Compton (2015)