Submarine (2010)

Posted By: FenixN
Submarine (2010)

Submarine (2010)
BDRip | MKV / x264, 3759 kb/s | 1280x688 | 01:36:53 | English: AC3, 448 kb/s (6 ch) | 2.85 GB
Genre: Comedy, Drama | UK / USA

15-year-old Oliver Tate has two objectives: To lose his virginity before his next birthday, and to extinguish the flame between his mother and an ex-lover who has resurfaced in her life.

imdb: 7/10 (3,717 votes)

Format : AVI
Format/Info : Audio Video Interleave
Format profile : OpenDML
File size : 2.85 GiB
Duration : 1h 36mn
Overall bit rate : 4 218 Kbps
Writing application : VirtualDubMod 1.5.10.2 (build 2540/release)
Writing library : VirtualDubMod build 2540/release

Video
ID : 0
Format : MPEG-4 Visual
Format profile : Advanced Simple@L5
Format settings, BVOP : 1
Format settings, QPel : No
Format settings, GMC : No warppoints
Format settings, Matrix : Default (H.263)
Codec ID : XVID
Codec ID/Hint : XviD
Duration : 1h 36mn
Bit rate : 3 759 Kbps
Width : 1 280 pixels
Height : 688 pixels
Display aspect ratio : 1.860
Frame rate : 23.976 fps
Color space : YUV
Chroma subsampling : 4:2:0
Bit depth : 8 bits
Scan type : Progressive
Compression mode : Lossy
Bits/(Pixel*Frame) : 0.178
Stream size : 2.54 GiB (89%)
Writing library : XviD 1.2.1 (UTC 2008-12-04)

Audio
ID : 1
Format : AC-3
Format/Info : Audio Coding 3
Mode extension : CM (complete main)
Codec ID : 2000
Duration : 1h 36mn
Bit rate mode : Constant
Bit rate : 448 Kbps
Channel(s) : 6 channels
Channel positions : Front: L C R, Side: L R, LFE
Sampling rate : 48.0 KHz
Bit depth : 16 bits
Compression mode : Lossy
Stream size : 310 MiB (11%)
Alignment : Split accross interleaves
Interleave, duration : 42 ms (1.00 video frame)
Interleave, preload duration : 500 ms


screenshot
Submarine (2010)

Submarine (2010)

Submarine (2010)


Welcome to the best movies collection (English, German, French language), best software, best eLearning video and many-many more: LINK
Do not forget to check my blog! Updated regularly!