Tags
Language
Tags

Sushi Girl (2012)

Posted By: Tavaz
720p (HD) / WEB-DL IMDb
Sushi Girl (2012)

Sushi Girl (2012)
WEB-DL | MOV | 1280x544 | H264 @ 725 kbps | AAC @ 64 kbps | 1 h 35 min | 545 MiB
Genre: Crime, Thriller

Fish has spent six years in jail. Six years alone. Six years keeping his mouth shut about the robbery, about the other men involved. The night he is released, the four men he protected with silence celebrate his freedom with a congratulatory dinner. The meal is a lavish array of sushi, served off the naked body of a beautiful young woman. The sushi girl seems catatonic, trained to ignore everything in the room, even if things become dangerous. Sure enough, the four unwieldy thieves can't help but open old wounds in an attempt to find their missing loot.

Sushi.Girl.2012.WEB-DL.720p.H264.mp4 (544.8 MB)



General
Complete name : ./8b3eb005ea2607597854699c6864f66d.tmp/Sushi.Girl.2012.WEB-DL.720p.H264.mp4
Format : MPEG-4
Format profile : Apple audio with iTunes info
Codec ID : M4A (isom/avc1/M4A /mp42)
File size : 545 MiB
Duration : 1 h 35 min
Overall bit rate mode : Variable
Overall bit rate : 794 kb/s
Encoded date : UTC 2012-12-18 21:47:34
Tagged date : UTC 2012-12-18 21:47:34

Video
ID : 2
Format : AVC
Format/Info : Advanced Video Codec
Format profile : High@L4.1
Format settings : CABAC / 5 Ref Frames
Format settings, CABAC : Yes
Format settings, RefFrames : 5 frames
Codec ID : avc1
Codec ID/Info : Advanced Video Coding
Duration : 1 h 35 min
Bit rate : 725 kb/s
Maximum bit rate : 4 370 kb/s
Width : 1 280 pixels
Height : 544 pixels
Display aspect ratio : 2.35:1
Frame rate mode : Constant
Frame rate : 23.976 (24000/1001) FPS
Color space : YUV
Chroma subsampling : 4:2:0
Bit depth : 8 bits
Scan type : Progressive
Bits/(Pixel*Frame) : 0.043
Stream size : 498 MiB (91%)
Writing library : x264 core 122 r2184M.bare.by.20-40 5c85e0a
Encoded date : UTC 2012-12-18 21:47:38
Tagged date : UTC 2012-12-18 21:48:04

Audio
ID : 1
Format : AAC
Format/Info : Advanced Audio Codec
Format profile : LC
Codec ID : mp4a-40-2
Duration : 1 h 35 min
Bit rate mode : Variable
Bit rate : 64.5 kb/s
Maximum bit rate : 78.4 kb/s
Channel(s) : 2 channels
Channel positions : Front: L R
Sampling rate : 48.0 kHz
Frame rate : 46.875 FPS (1024 SPF)
Compression mode : Lossy
Stream size : 44.3 MiB (8%)
Encoded date : UTC 2012-12-18 21:47:34
Tagged date : UTC 2012-12-18 21:48:04





Sushi Girl (2012)


Sushi Girl (2012)


Sushi Girl (2012)


Sushi Girl (2012)


Sushi Girl (2012)