Tags
Language
Tags

Thor: Ragnarok (2017)

Posted By: Tavaz
1080p (FullHD) / WEB-DL IMDb
Thor: Ragnarok (2017)

Thor: Ragnarok (2017)
WEB-DL | MKV | 1920x800 | English | H264 @ 5150 kbps | AC-3 @ 384 kbps | 2 h 10 min | 5.16 GiB
Subtitles: English, Dutch
Genre: Action, Adventure, Comedy

Thor is imprisoned on the other side of the universe and finds himself in a race against time to get back to Asgard to stop Ragnarok, the prophecy of destruction to his homeworld and the end of Asgardian civilization, at the hands of an all-powerful new threat, the ruthless Hela.

M.gif (1.1 MB)
60e3b3f838801d431f7c993d168baca1.mp4 (16.2 MB)
260e3b3f838801d431f7c993d168baca1.mkv (5.2 GB)
Rename.with.this.par2 (59.4 KB)



General
Unique ID : 247722676789259381347649616096475598683 (0xBA5DA6F0E457441BB1A534BC0279CF5B)
Complete name : ./260e3b3f838801d431f7c993d168baca1.mkv
Format : Matroska
Format version : Version 4 / Version 2
File size : 5.16 GiB
Duration : 2 h 10 min
Overall bit rate : 5 647 kb/s
Encoded date : UTC 2018-01-21 02:11:14
Writing application : mkvmerge v6.3.0 ('You can't stop me!') built on Jun 27 2013 22:06:07
Writing library : libebml v1.3.0 + libmatroska v1.4.0

Video
ID : 1
Format : AVC
Format/Info : Advanced Video Codec
Format profile : High@L4.1
Format settings : CABAC / 4 Ref Frames
Format settings, CABAC : Yes
Format settings, RefFrames : 4 frames
Format settings, GOP : M=1, N=3
Codec ID : V_MPEG4/ISO/AVC
Duration : 2 h 10 min
Bit rate : 5 150 kb/s
Width : 1 920 pixels
Height : 800 pixels
Display aspect ratio : 2.40:1
Frame rate mode : Constant
Frame rate : 23.976 (24000/1001) FPS
Color space : YUV
Chroma subsampling : 4:2:0
Bit depth : 8 bits
Scan type : Progressive
Bits/(Pixel*Frame) : 0.140
Stream size : 4.70 GiB (91%)
Default : Yes
Forced : No
Color range : Limited
Color primaries : BT.709
Transfer characteristics : BT.709
Matrix coefficients : BT.709

Audio
ID : 2
Format : AC-3
Format/Info : Audio Coding 3
Format settings, Endianness : Big
Codec ID : A_AC3
Duration : 2 h 10 min
Bit rate mode : Constant
Bit rate : 384 kb/s
Channel(s) : 6 channels
Channel positions : Front: L C R, Side: L R, LFE
Sampling rate : 48.0 kHz
Frame rate : 31.250 FPS (1536 SPF)
Bit depth : 16 bits
Compression mode : Lossy
Stream size : 359 MiB (7%)
Language : English
Service kind : Complete Main
Default : Yes
Forced : No

Text #1
ID : 3
Format : UTF-8
Codec ID : S_TEXT/UTF8
Codec ID/Info : UTF-8 Plain Text
Title : QoQ-Team
Language : Dutch
Default : Yes
Forced : No

Text #2
ID : 4
Format : UTF-8
Codec ID : S_TEXT/UTF8
Codec ID/Info : UTF-8 Plain Text
Language : English
Default : No
Forced : No

Menu
00:00:00.000 : en:The Great Prophecy
00:06:20.000 : en:The Tragedy Of Loki Of Asgard
00:14:11.000 : en:A Worthy Inclusion
00:22:12.000 : en:The Goddess Of Death
00:26:39.000 : en:"Are You A Fighter, Or Are You Food?"
00:31:29.000 : en:Heiress Apparent
00:35:03.000 : en:The Grandmaster
00:42:49.000 : en:The Eternal Flame
00:48:30.000 : en:The Contest Of Champions
00:59:38.000 : en:The Resistance
01:07:58.000 : en:Hotheaded Fools
01:17:30.000 : en:The Revengers
01:27:25.000 : en:"The Revolution Has Begun"
01:36:08.000 : en:Ready For War
01:42:35.000 : en:"Asgard Is Not A Place"
01:49:20.000 : en:"What Were You The God Of Again?"
01:54:57.000 : en:Ragnarok
02:00:37.000 : en:End Credits





Thor: Ragnarok (2017)


Thor: Ragnarok (2017)


Thor: Ragnarok (2017)


Thor: Ragnarok (2017)


Thor: Ragnarok (2017)