TPB AFK: The Pirate Bay Away from Keyboard (2013)

Posted By: ParRus
TPB AFK: The Pirate Bay Away from Keyboard (2013)

TPB AFK: The Pirate Bay Away from Keyboard (2013)
DVDRip | MP4 | 848 x 480 | AVC ~1500 Kbps | 25 fps
Swedish: MPEG Audio, 2 ch, 154 kbps | Subs: English (srt) | 1h 22mn | 974 MB
Genre: Documentary

Two years in the making, TPB AFK is a documentary about three computer addicts who revolutionized the world of media distribution with their hobby homepage. How did Tiamo, a beer crazy hardware fanatic, Brokep a tree hugging eco activist and Anakata, a paranoid cyber libertarian, get the White House to threaten the Swedish government with trade sanctions? TPB AFK explores what Hollywood’s most hated pirates go through on a personal level.
Director: Simon Klose
Stars: Gottfrid Svartholm, Peter Sunde, Fredrik Neij
IMDB info

General
Complete name : TPB.AFK.2013.mp4
Format : MPEG-4
Format profile : Base Media / Version 2
Codec ID : mp42
File size : 974 MiB
Duration : 1h 22mn
Overall bit rate mode : Variable
Overall bit rate : 1 658 Kbps
Encoded date : UTC 2013-02-08 13:49:43
Tagged date : UTC 2013-02-08 14:13:16
Writing application : HandBrake 0.9.8 2012071700
Video #1
ID : 1
Format : AVC
Format/Info : Advanced Video Codec
Format profile : High@L3.0
Format settings, CABAC : Yes
Format settings, ReFrames : 4 frames
Codec ID : avc1
Codec ID/Info : Advanced Video Coding
Duration : 1h 22mn
Bit rate mode : Variable
Bit rate : 1 500 Kbps
Width : 848 pixels
Height : 480 pixels
Display aspect ratio : 16:9
Frame rate mode : Constant
Frame rate : 25.000 fps
Color space : YUV
Chroma subsampling : 4:2:0
Bit depth : 8 bits
Scan type : Progressive
Bits/(Pixel*Frame) : 0.147
Stream size : 881 MiB (90%)
Writing library : x264 core 120
Encoding settings : cabac=1 / ref=3 / deblock=1:0:0 / analyse=0x3:0x113 / me=hex / subme=7 / psy=1 / psy_rd=1.00:0.00 / mixed_ref=1 / me_range=16 / chroma_me=1 / trellis=1 / 8x8dct=1 / cqm=0 / deadzone=21,11 / fast_pskip=1 / chroma_qp_offset=-2 / threads=12 / sliced_threads=0 / nr=0 / decimate=1 / interlaced=0 / bluray_compat=0 / constrained_intra=0 / bframes=3 / b_pyramid=2 / b_adapt=1 / b_bias=0 / direct=1 / weightb=1 / open_gop=0 / weightp=2 / keyint=250 / keyint_min=25 / scenecut=40 / intra_refresh=0 / rc_lookahead=40 / rc=2pass / mbtree=1 / bitrate=1500 / ratetol=1.0 / qcomp=0.60 / qpmin=3 / qpmax=69 / qpstep=4 / cplxblur=20.0 / qblur=0.5 / ip_ratio=1.40 / aq=1:1.00
Encoded date : UTC 2013-02-08 13:49:43
Tagged date : UTC 2013-02-08 14:13:16
Color primaries : BT.709-5, BT.1361, IEC 61966-2-4, SMPTE RP177
Transfer characteristics : BT.709-5, BT.1361
Matrix coefficients : BT.709-5, BT.1361, IEC 61966-2-4 709, SMPTE RP177
Audio #2
ID : 2
Format : MPEG Audio
Format version : Version 1
Format profile : Layer 3
Codec ID : 69
Duration : 1h 22mn
Bit rate mode : Variable
Bit rate : 154 Kbps
Maximum bit rate : 195 Kbps
Channel(s) : 2 channels
Sampling rate : 48.0 KHz
Compression mode : Lossy
Stream size : 90.7 MiB (9%)
Language : English
Encoded date : UTC 2013-02-08 13:49:43
Tagged date : UTC 2013-02-08 14:13:16

ScreenShots

TPB AFK: The Pirate Bay Away from Keyboard (2013)

TPB AFK: The Pirate Bay Away from Keyboard (2013)

TPB AFK: The Pirate Bay Away from Keyboard (2013)

TPB AFK: The Pirate Bay Away from Keyboard (2013)

For more, Visit my AH-blog

no mirrors please, Follow The Rules