Taxi Driver (1976)

Posted By: Tavaz
1080p (FullHD) / BDRip IMDb
Taxi Driver (1976)

Taxi Driver (1976)
WEB-DL | MKV | 1920x1040 | German / English | H264 @ 7974 kbps | DTS @ 1509 kbps | 1 h 53 min | 8.74 GiB
Subtitles: German
Genre: Crime, Drama

Travis Bickle ist ein Außenseiter. Nicht zuletzt durch seinen Beruf als Taxifahrer lernt der Vietnamveteran die Gesellschaft zu hassen. Die Leere und Kälte, die von den Menschen um ihn herum auszugehen scheint, bringen ihn dazu sich Waffen zu besorgen und für den Kampf gegen den Rest der Welt zu wappnen. Beinahe per Zufall wählt er eine junge Prostituierte aus und nimmt sich ihrer an. Sein Ziel ist es, sie aus ihren Leiden zu befreien. Als er schließlich merkt, dass sie nichteinmal zu realisieren scheint unter welchen Umständen sie lebt, läuft er Amok…

vs-taxi.driver.1080p.mkv (8.7 GB)
vs-taxi.driver.1080p-sample.mkv (93.4 MB)



General
Unique ID : 212993355149586116851142130968447353410 (0xA03D072F3097373483DE8A8181CF0242)
Complete name : ./vs-taxi.driver.1080p.mkv
Format : Matroska
Format version : Version 4 / Version 2
File size : 8.74 GiB
Duration : 1 h 53 min
Overall bit rate : 11.0 Mb/s
Encoded date : UTC 2016-08-16 00:33:55
Writing application : mkvmerge v9.3.1 ('Mask Machine') 64bit
Writing library : libebml v1.3.4 + libmatroska v1.4.5

Video
ID : 1
Format : AVC
Format/Info : Advanced Video Codec
Format profile : High@L4
Format settings : CABAC / 4 Ref Frames
Format settings, CABAC : Yes
Format settings, RefFrames : 4 frames
Codec ID : V_MPEG4/ISO/AVC
Duration : 1 h 53 min
Bit rate : 7 974 kb/s
Width : 1 920 pixels
Height : 1 040 pixels
Display aspect ratio : 1.85:1
Frame rate mode : Constant
Frame rate : 23.976 (23976/1000) FPS
Color space : YUV
Chroma subsampling : 4:2:0
Bit depth : 8 bits
Scan type : Progressive
Bits/(Pixel*Frame) : 0.167
Stream size : 6.34 GiB (73%)
Writing library : x264 core 148 r2705 3f5ed56
Encoding settings : cabac=1 / ref=4 / deblock=1:-1:-1 / analyse=0x3:0x113 / me=umh / subme=8 / psy=1 / psy_rd=1.00:0.15 / mixed_ref=1 / me_range=16 / chroma_me=1 / trellis=1 / 8x8dct=1 / cqm=0 / deadzone=21,11 / fast_pskip=0 / chroma_qp_offset=-3 / threads=12 / lookahead_threads=2 / sliced_threads=0 / nr=0 / decimate=1 / interlaced=0 / bluray_compat=0 / constrained_intra=0 / bframes=3 / b_pyramid=2 / b_adapt=2 / b_bias=0 / direct=3 / weightb=1 / open_gop=0 / weightp=2 / keyint=250 / keyint_min=23 / scenecut=40 / intra_refresh=0 / rc_lookahead=50 / rc=2pass / mbtree=1 / bitrate=7974 / ratetol=1.0 / qcomp=0.60 / qpmin=0 / qpmax=69 / qpstep=4 / cplxblur=20.0 / qblur=0.5 / ip_ratio=1.40 / aq=1:1.00
Default : Yes
Forced : No

Audio #1
ID : 2
Format : DTS
Format/Info : Digital Theater Systems
Mode : 16
Format settings, Endianness : Big
Codec ID : A_DTS
Duration : 1 h 53 min
Bit rate mode : Constant
Bit rate : 1 509 kb/s
Channel(s) : 6 channels
Channel positions : Front: L C R, Side: L R, LFE
Sampling rate : 48.0 kHz
Frame rate : 93.750 FPS (512 SPF)
Bit depth : 24 bits
Compression mode : Lossy
Stream size : 1.20 GiB (14%)
Language : German
Default : Yes
Forced : No

Audio #2
ID : 3
Format : DTS
Format/Info : Digital Theater Systems
Mode : 16
Format settings, Endianness : Big
Codec ID : A_DTS
Duration : 1 h 53 min
Bit rate mode : Constant
Bit rate : 1 509 kb/s
Channel(s) : 6 channels
Channel positions : Front: L C R, Side: L R, LFE
Sampling rate : 48.0 kHz
Frame rate : 93.750 FPS (512 SPF)
Bit depth : 24 bits
Compression mode : Lossy
Stream size : 1.20 GiB (14%)
Language : English
Default : No
Forced : No

Text
ID : 4
Format : UTF-8
Codec ID : S_TEXT/UTF8
Codec ID/Info : UTF-8 Plain Text
Duration : 1 h 37 min
Bit rate : 0 b/s
Count of elements : 14
Stream size : 447 Bytes (0%)
Language : German
Default : Yes
Forced : No

Menu
00:00:00.000 : en:00:00:00.000
00:10:59.033 : en:00:10:59.033
00:20:05.037 : en:00:20:05.037
00:28:21.033 : en:00:28:21.033
00:33:12.199 : en:00:33:12.199
00:40:11.576 : en:00:40:11.576
00:44:03.641 : en:00:44:03.641
00:51:42.141 : en:00:51:42.141
01:01:10.542 : en:01:01:10.542
01:08:11.796 : en:01:08:11.796
01:14:49.026 : en:01:14:49.026
01:24:46.039 : en:01:24:46.039
01:29:42.752 : en:01:29:42.752
01:34:11.980 : en:01:34:11.980
01:38:02.418 : en:01:38:02.418
01:45:57.893 : en:01:45:57.893





Taxi Driver (1976)


Taxi Driver (1976)


Taxi Driver (1976)


Taxi Driver (1976)


Taxi Driver (1976)