Teen Spirit (2011)

Posted By: FenixN
Teen Spirit (2011)

Teen Spirit (2011)
HDTV | AVI / XviD, 1801 kb/s | 720x480 | 01:21:38 | English: MP3, 192 kb/s (2 ch) | 1.14 Gb
Genre: Drama | USA

The story is about Amber, a mean popular girl who gets electrocuted and dies and is not allowed to enter into heaven unless she helps the least popular girl in school become Prom Queen within a week, but things do not go as planned.

Format : AVI
Format/Info : Audio Video Interleave
File size : 1.14 GiB
Duration : 1h 21mn
Overall bit rate : 2 002 Kbps

Video
ID : 0
Format : MPEG-4 Visual
Format profile : Advanced Simple@L5
Format settings, BVOP : No
Format settings, QPel : No
Format settings, GMC : No warppoints
Format settings, Matrix : Default (H.263)
Codec ID : XVID
Codec ID/Hint : XviD
Duration : 1h 21mn
Bit rate : 1 801 Kbps
Width : 720 pixels
Height : 480 pixels
Display aspect ratio : 3:2
Frame rate : 23.976 fps
Standard : NTSC
Color space : YUV
Chroma subsampling : 4:2:0
Bit depth : 8 bits
Scan type : Progressive
Compression mode : Lossy
Bits/(Pixel*Frame) : 0.217
Stream size : 1.03 GiB (90%)
Writing library : XviD 1.2.1 (UTC 2008-12-04)

Audio
ID : 1
Format : MPEG Audio
Format version : Version 1
Format profile : Layer 3
Codec ID : 55
Codec ID/Hint : MP3
Duration : 1h 21mn
Bit rate mode : Constant
Bit rate : 192 Kbps
Channel(s) : 2 channels
Sampling rate : 44.1 KHz
Compression mode : Lossy
Stream size : 112 MiB (10%)
Alignment : Split accross interleaves
Interleave, duration : 42 ms (1.00 video frame)


screenshot
Teen Spirit (2011)

Teen Spirit (2011)

Teen Spirit (2011)


Welcome to the best movies collection (English, German, French language), best software, best eLearning video and many-many more: LINK
Do not forget to check my blog! Updated regularly!