Castle in the Sky (1986)

Posted By: Tavaz
Castle in the Sky (1986)

Castle in the Sky (1986)
MKV | 1280x694 | Japanese / English | H264 @ 9000 kbps | AAC @ 298 kbps | 2 h 4 min | 8.66 GiB
Subtitles: English
Genre: Action, Adventure, Animation, Fantasy, Romance, Family

The orphan Sheeta inherited a mysterious crystal that links her to the mythical sky-kingdom of Laputa. With the help of resourceful Pazu and a rollicking band of sky pirates, she makes her way to the ruins of the once-great civilization. Sheeta and Pazu must outwit the evil Muska, who plans to use Laputa's science to make himself ruler of the world.

ba7196c502994948844b1fb2857944cf.mkv (8.7 GB)



General
Unique ID : 186059535221003657419126585109887269423 (0x8BF9C35612316EC8A56D962ED8FB3A2F)
Complete name : ./ba7196c502994948844b1fb2857944cf.mkv
Format : Matroska
Format version : Version 4 / Version 2
File size : 8.66 GiB
Duration : 2 h 4 min
Overall bit rate : 9 948 kb/s
Movie name : Tenkû.no.shiro.Rapyuta.1986.720p.Blu-ray.AAC2.0.x264-CtrlHD
Encoded date : UTC 2014-12-16 03:58:07
Writing application : mkvmerge v7.4.0 ('Circles') 64bit built on Dec 12 2014 12:19:56
Writing library : libebml v1.3.0 + libmatroska v1.4.1

Video
ID : 1
Format : AVC
Format/Info : Advanced Video Codec
Format profile : High@L4.1
Format settings : CABAC / 9 Ref Frames
Format settings, CABAC : Yes
Format settings, RefFrames : 9 frames
Codec ID : V_MPEG4/ISO/AVC
Duration : 2 h 4 min
Bit rate : 9 000 kb/s
Width : 1 280 pixels
Height : 694 pixels
Display aspect ratio : 1.85:1
Frame rate mode : Constant
Frame rate : 23.976 (24000/1001) FPS
Color space : YUV
Chroma subsampling : 4:2:0
Bit depth : 8 bits
Scan type : Progressive
Bits/(Pixel*Frame) : 0.423
Stream size : 7.83 GiB (90%)
Title : x264 2 pass
Writing library : x264 core 112 r1834kMod a51816a
Encoding settings : cabac=1 / ref=9 / deblock=1:-2:-2 / analyse=0x3:0x133 / me=tesa / subme=10 / psy=1 / psy_rd=0.70:0.00 / mixed_ref=1 / me_range=32 / chroma_me=1 / trellis=2 / 8x8dct=1 / cqm=0 / deadzone=21,11 / fast_pskip=0 / chroma_qp_offset=-2 / threads=6 / sliced_threads=0 / nr=0 / decimate=0 / interlaced=0 / constrained_intra=0 / bframes=7 / b_pyramid=2 / b_adapt=2 / b_bias=0 / direct=3 / weightb=1 / open_gop=0 / weightp=2 / keyint=240 / keyint_min=24 / scenecut=40 / intra_refresh=0 / rc=2pass / mbtree=0 / bitrate=9000 / ratetol=1.0 / qcomp=0.80 / qpmin=0 / qpmax=51 / qpstep=4 / cplxblur=20.0 / qblur=0.5 / ip_ratio=1.10 / pb_ratio=1.10 / aq=1:0.60
Language : English
Default : Yes
Forced : No

Audio #1
ID : 2
Format : AAC
Format/Info : Advanced Audio Codec
Format profile : LC
Codec ID : A_AAC-2
Duration : 2 h 4 min
Bit rate : 299 kb/s
Channel(s) : 2 channels
Channel positions : Front: L R
Sampling rate : 48.0 kHz
Frame rate : 46.875 FPS (1024 SPF)
Compression mode : Lossy
Stream size : 266 MiB (3%)
Title : AAC 2.0
Language : Japanese
Default : Yes
Forced : No

Audio #2
ID : 3
Format : AC-3
Format/Info : Audio Coding 3
Format settings, Endianness : Big
Codec ID : A_AC3
Duration : 2 h 4 min
Bit rate mode : Constant
Bit rate : 640 kb/s
Channel(s) : 6 channels
Channel positions : Front: L C R, Side: L R, LFE
Sampling rate : 48.0 kHz
Frame rate : 31.250 FPS (1536 SPF)
Bit depth : 16 bits
Compression mode : Lossy
Stream size : 570 MiB (6%)
Title : AC3 5.1
Language : English
Service kind : Complete Main
Default : No
Forced : No

Text #1
ID : 4
Format : UTF-8
Codec ID : S_TEXT/UTF8
Codec ID/Info : UTF-8 Plain Text
Duration : 2 h 2 min
Bit rate : 28 b/s
Count of elements : 1008
Stream size : 25.6 KiB (0%)
Title : English srt
Language : English
Default : Yes
Forced : No

Text #2
ID : 5
Format : PGS
Muxing mode : zlib
Codec ID : S_HDMV/PGS
Codec ID/Info : Picture based subtitle format used on BDs/HD-DVDs
Duration : 2 h 2 min
Bit rate : 6 855 b/s
Count of elements : 2012
Stream size : 6.01 MiB (0%)
Title : English sup
Language : English
Default : No
Forced : No

Menu
00:00:00.000 : en:00:00:00.000
00:03:52.357 : en:00:03:52.357
00:10:45.478 : en:00:10:45.478
00:16:03.212 : en:00:16:03.212
00:21:29.872 : en:00:21:29.872
00:26:52.319 : en:00:26:52.319
00:32:27.946 : en:00:32:27.946
00:37:58.651 : en:00:37:58.651
00:45:14.337 : en:00:45:14.337
00:51:47.604 : en:00:51:47.604
00:56:43.358 : en:00:56:43.358
01:01:21.886 : en:01:01:21.886
01:06:16.347 : en:01:06:16.347
01:12:57.248 : en:01:12:57.248
01:17:49.456 : en:01:17:49.456
01:24:00.243 : en:01:24:00.243
01:28:35.810 : en:01:28:35.810
01:34:04.347 : en:01:34:04.347
01:37:38.394 : en:01:37:38.394
01:41:25.162 : en:01:41:25.162
01:47:22.644 : en:01:47:22.644
01:52:14.811 : en:01:52:14.811
01:57:07.020 : en:01:57:07.020
02:01:15.602 : en:02:01:15.602





Castle in the Sky (1986)


Castle in the Sky (1986)


Castle in the Sky (1986)


Castle in the Sky (1986)


Castle in the Sky (1986)