Tags
Language
Tags

Terminator - Dark Fate (2019)

Posted By: Tavaz
1080p (FullHD) / BDRip IMDb
Terminator - Dark Fate (2019)

Terminator - Dark Fate (2019)
WEB-DL | MKV | 1920x808 | Deutsch / English | H264 @ 9134 kbps | DTS | 2 h 8 min | 13.2 GiB
Subtitles: Deutsch
Genre: Action, Science Fiction

Dani Ramos lebt mit ihrem Bruder und ihrem Vater ein einfaches Leben in Mexiko, bis jedoch ein hoch entwickelter und tödlicher neuer Terminator namens Rev-9 durch die Zeit reist, um sie zu jagen und zu töten. Danis Überleben hängt davon ab, dass sie sich mit zwei Kriegern zusammenschließen muss: Grace, eine verbesserte Supersoldatin der Zukunft, und eine kampferprobte Sarah Connor. Als der Rev-9 auf der Suche nach Dani rücksichtslos alles und jeden zerstört, werden die drei zu einem T-800 aus Sarahs Vergangenheit geführt, der möglicherweise ihre letzte große Hoffnung sein könnte…

Terminator.Dark.Fate.2019.German.DL.DTS.Dubbed.1080p.BluRay.x264.iNTERNAL-PsO6OWfueNf5C=5879dd13768b46208d0bd3c6e5f47ffd.part1.rar (7.0 GB)
Terminator.Dark.Fate.2019.German.DL.DTS.Dubbed.1080p.BluRay.x264.iNTERNAL-PsO6OWfueNf5C=5879dd13768b46208d0bd3c6e5f47ffd.part2.rar (6.5 GB)



General
Unique ID : 183684228552574255433928291265998641383 (0x8A304BACF910B5679CF0E9E0157658E7)
Complete name : ./pso-termi-bd-hd-1080p.mkv
Format : Matroska
Format version : Version 4 / Version 2
File size : 13.2 GiB
Duration : 2 h 8 min
Overall bit rate : 14.8 Mb/s
Encoded date : UTC 2020-01-19 12:24:29
Writing application : mkvmerge v8.3.0 ('Over the Horizon') 64bit
Writing library : libebml v1.3.1 + libmatroska v1.4.2

Video
ID : 1
Format : AVC
Format/Info : Advanced Video Codec
Format profile : High@L4.1
Format settings : CABAC / 5 Ref Frames
Format settings, CABAC : Yes
Format settings, RefFrames : 5 frames
Codec ID : V_MPEG4/ISO/AVC
Duration : 2 h 8 min
Bit rate : 9 134 kb/s
Width : 1 920 pixels
Height : 808 pixels
Display aspect ratio : 2.40:1
Frame rate mode : Constant
Frame rate : 23.976 (24000/1001) FPS
Color space : YUV
Chroma subsampling : 4:2:0
Bit depth : 8 bits
Scan type : Progressive
Bits/(Pixel*Frame) : 0.246
Stream size : 8.17 GiB (62%)
Writing library : x264 core 159 r2991 1771b55
Encoding settings : cabac=1 / ref=5 / deblock=1:-3:-3 / analyse=0x3:0x113 / me=umh / subme=8 / psy=1 / psy_rd=1.00:0.00 / mixed_ref=1 / me_range=16 / chroma_me=1 / trellis=1 / 8x8dct=1 / cqm=0 / deadzone=21,11 / fast_pskip=1 / chroma_qp_offset=-2 / threads=25 / lookahead_threads=4 / sliced_threads=0 / nr=0 / decimate=1 / interlaced=0 / bluray_compat=0 / constrained_intra=0 / bframes=3 / b_pyramid=2 / b_adapt=1 / b_bias=0 / direct=3 / weightb=1 / open_gop=0 / weightp=2 / keyint=250 / keyint_min=23 / scenecut=40 / intra_refresh=0 / rc_lookahead=50 / rc=2pass / mbtree=1 / bitrate=9134 / ratetol=1.0 / qcomp=0.60 / qpmin=0 / qpmax=69 / qpstep=4 / cplxblur=20.0 / qblur=0.5 / ip_ratio=1.40 / aq=1:1.00
Language : English
Default : Yes
Forced : No

Audio #1
ID : 2
Format : DTS
Format/Info : Digital Theater Systems
Format profile : MA / Core
Mode : 16
Format settings, Endianness : Big
Codec ID : A_DTS
Duration : 2 h 8 min
Bit rate mode : Variable / Constant
Bit rate : 4 989 kb/s / 1 509 kb/s
Channel(s) : 8 channels / 6 channels
Channel positions : Front: L C R, Side: L R, Back: L R, LFE / Front: L C R, Side: L R, LFE
Sampling rate : 48.0 kHz
Frame rate : 93.750 FPS (512 SPF)
Bit depth : 24 bits
Compression mode : Lossless / Lossy
Stream size : 4.46 GiB (34%)
Title : PsO 7.1 DTS-HD Mix
Language : German
Default : Yes
Forced : Yes

Audio #2
ID : 3
Format : AC-3
Format/Info : Audio Coding 3
Format settings, Endianness : Big
Codec ID : A_AC3
Duration : 2 h 8 min
Bit rate mode : Constant
Bit rate : 640 kb/s
Channel(s) : 6 channels
Channel positions : Front: L C R, Side: L R, LFE
Sampling rate : 48.0 kHz
Frame rate : 31.250 FPS (1536 SPF)
Bit depth : 16 bits
Compression mode : Lossy
Stream size : 586 MiB (4%)
Language : English
Service kind : Complete Main
Default : No
Forced : No

Text #1
ID : 4
Format : UTF-8
Codec ID : S_TEXT/UTF8
Codec ID/Info : UTF-8 Plain Text
Duration : 2 h 3 min
Bit rate : 3 b/s
Count of elements : 131
Stream size : 2.96 KiB (0%)
Language : German
Default : Yes
Forced : Yes

Text #2
ID : 5
Format : UTF-8
Codec ID : S_TEXT/UTF8
Codec ID/Info : UTF-8 Plain Text
Duration : 2 h 7 min
Bit rate : 33 b/s
Count of elements : 1144
Stream size : 30.9 KiB (0%)
Title : forced
Language : German
Default : No
Forced : No

Menu
00:00:00.000 : en:00:00:00.000
00:04:19.843 : en:00:04:19.843
00:07:48.927 : en:00:07:48.927
00:11:47.916 : en:00:11:47.916
00:16:56.349 : en:00:16:56.349
00:22:10.663 : en:00:22:10.663
00:29:00.614 : en:00:29:00.614
00:33:25.754 : en:00:33:25.754
00:41:35.493 : en:00:41:35.493
00:47:02.695 : en:00:47:02.695
00:53:08.936 : en:00:53:08.936
00:57:56.807 : en:00:57:56.807
01:05:02.690 : en:01:05:02.690
01:13:07.967 : en:01:13:07.967
01:20:45.591 : en:01:20:45.591
01:27:29.744 : en:01:27:29.744
01:32:48.688 : en:01:32:48.688
01:41:45.850 : en:01:41:45.850
01:49:35.319 : en:01:49:35.319
01:57:58.613 : en:01:57:58.613





Terminator - Dark Fate (2019)


Terminator - Dark Fate (2019)


Terminator - Dark Fate (2019)


Terminator - Dark Fate (2019)


Terminator - Dark Fate (2019)