Please register here if you want to download anything!

If domain in your address bar is different from the list below
PLEASE LEAVE THAT SITE IMMEDIATELY
❗IT'S A DANGEROUS FAKE❗



Spicy Magazines for Men! ;-)

The Adventures of Priscilla, Queen of the Desert (1994)

Posted By: Tavaz
The Adventures of Priscilla, Queen of the Desert (1994)

The Adventures of Priscilla, Queen of the Desert (1994)
MKV | 1920x822 | English | H264 @ 13000 kbps | DTS | 1 h 43 min | 12.5 GiB
Subtitles: Portuguese, Dutch, Hungarian, Chinese, Turkish, German, English, Japanese, French, Spanish, Polish, Thai, Italian
Genre: Comedy, Drama

Two drag performers and a transgender woman travel across the desert to perform their unique style of cabaret.

b77e5112f2eb4cb389daf30ca34ab27d.mkv (12.5 GB)



General
Unique ID : 217092697938767184428953757039737979195 (0xA352886367D2D91E0162F19D00CC413B)
Complete name : ./b77e5112f2eb4cb389daf30ca34ab27d.mkv
Format : Matroska
Format version : Version 4 / Version 2
File size : 12.5 GiB
Duration : 1 h 43 min
Overall bit rate : 17.3 Mb/s
Movie name : The Adventures of Priscila Queen of the Desert 1994 1080p Blu-ray x264 DTS-HD MA 5.1-NghtCaptn
Encoded date : UTC 2018-04-19 23:27:59
Writing application : mkvmerge v21.0.0 ('Tardigrades Will Inherit The Earth') 64-bit
Writing library : libebml v1.3.5 + libmatroska v1.4.8

Video
ID : 1
Format : AVC
Format/Info : Advanced Video Codec
Format profile : High@L4.1
Format settings : CABAC / 5 Ref Frames
Format settings, CABAC : Yes
Format settings, RefFrames : 5 frames
Codec ID : V_MPEG4/ISO/AVC
Duration : 1 h 43 min
Bit rate : 13.0 Mb/s
Width : 1 920 pixels
Height : 822 pixels
Display aspect ratio : 2.35:1
Frame rate mode : Constant
Frame rate : 23.976 (24000/1001) FPS
Color space : YUV
Chroma subsampling : 4:2:0
Bit depth : 8 bits
Scan type : Progressive
Bits/(Pixel*Frame) : 0.344
Stream size : 9.38 GiB (75%)
Writing library : x264 core 155 r2901 7d0ff22
Encoding settings : cabac=1 / ref=5 / deblock=1:-3:-3 / analyse=0x3:0x133 / me=umh / subme=10 / psy=1 / psy_rd=1.00:0.15 / mixed_ref=1 / me_range=24 / chroma_me=1 / trellis=2 / 8x8dct=1 / cqm=0 / deadzone=21,11 / fast_pskip=1 / chroma_qp_offset=-3 / threads=6 / lookahead_threads=1 / sliced_threads=0 / nr=0 / decimate=1 / interlaced=0 / bluray_compat=0 / constrained_intra=0 / bframes=8 / b_pyramid=2 / b_adapt=2 / b_bias=0 / direct=3 / weightb=1 / open_gop=0 / weightp=2 / keyint=250 / keyint_min=23 / scenecut=40 / intra_refresh=0 / rc_lookahead=60 / rc=2pass / mbtree=1 / bitrate=13000 / ratetol=1.0 / qcomp=0.60 / qpmin=0 / qpmax=69 / qpstep=4 / cplxblur=20.0 / qblur=0.5 / vbv_maxrate=49000 / vbv_bufsize=38000 / nal_hrd=none / filler=0 / ip_ratio=1.20 / aq=1:0.85
Language : English
Default : Yes
Forced : No

Audio
ID : 2
Format : DTS
Format/Info : Digital Theater Systems
Format profile : MA / Core
Mode : 16
Format settings, Endianness : Big
Codec ID : A_DTS
Duration : 1 h 43 min
Bit rate mode : Variable / Constant
Bit rate : 4 149 kb/s / 1 509 kb/s
Channel(s) : 6 channels
Channel positions : Front: L C R, Side: L R, LFE
Sampling rate : 48.0 kHz
Frame rate : 93.750 FPS (512 SPF)
Bit depth : 24 bits
Compression mode : Lossless / Lossy
Stream size : 3.00 GiB (24%)
Language : English
Default : Yes
Forced : No

Text #1
ID : 3
Format : PGS
Muxing mode : zlib
Codec ID : S_HDMV/PGS
Codec ID/Info : Picture based subtitle format used on BDs/HD-DVDs
Duration : 1 h 42 min
Bit rate : 38.0 kb/s
Count of elements : 2388
Stream size : 28.0 MiB (0%)
Language : English
Default : Yes
Forced : No

Text #2
ID : 4
Format : PGS
Muxing mode : zlib
Codec ID : S_HDMV/PGS
Codec ID/Info : Picture based subtitle format used on BDs/HD-DVDs
Duration : 1 h 42 min
Bit rate : 40.6 kb/s
Count of elements : 2620
Stream size : 29.7 MiB (0%)
Language : Spanish
Default : No
Forced : No

Text #3
ID : 5
Format : PGS
Muxing mode : zlib
Codec ID : S_HDMV/PGS
Codec ID/Info : Picture based subtitle format used on BDs/HD-DVDs
Duration : 1 h 41 min
Bit rate : 37.1 kb/s
Count of elements : 2434
Stream size : 26.8 MiB (0%)
Language : French
Default : No
Forced : No

Text #4
ID : 6
Format : PGS
Muxing mode : zlib
Codec ID : S_HDMV/PGS
Codec ID/Info : Picture based subtitle format used on BDs/HD-DVDs
Duration : 1 h 42 min
Bit rate : 39.6 kb/s
Count of elements : 2794
Stream size : 28.9 MiB (0%)
Language : Portuguese
Default : No
Forced : No

Text #5
ID : 7
Format : PGS
Muxing mode : zlib
Codec ID : S_HDMV/PGS
Codec ID/Info : Picture based subtitle format used on BDs/HD-DVDs
Duration : 1 h 42 min
Bit rate : 41.1 kb/s
Count of elements : 2704
Stream size : 30.0 MiB (0%)
Language : Italian
Default : No
Forced : No

Text #6
ID : 8
Format : PGS
Muxing mode : zlib
Codec ID : S_HDMV/PGS
Codec ID/Info : Picture based subtitle format used on BDs/HD-DVDs
Duration : 1 h 42 min
Bit rate : 45.7 kb/s
Count of elements : 2730
Stream size : 33.4 MiB (0%)
Language : German
Default : No
Forced : No

Text #7
ID : 9
Format : PGS
Muxing mode : zlib
Codec ID : S_HDMV/PGS
Codec ID/Info : Picture based subtitle format used on BDs/HD-DVDs
Duration : 1 h 42 min
Bit rate : 41.0 kb/s
Count of elements : 2784
Stream size : 30.0 MiB (0%)
Language : Spanish
Default : No
Forced : No

Text #8
ID : 10
Format : PGS
Muxing mode : zlib
Codec ID : S_HDMV/PGS
Codec ID/Info : Picture based subtitle format used on BDs/HD-DVDs
Duration : 1 h 38 min
Bit rate : 36.6 kb/s
Count of elements : 2304
Stream size : 25.8 MiB (0%)
Language : Chinese
Default : No
Forced : No

Text #9
ID : 11
Format : PGS
Muxing mode : zlib
Codec ID : S_HDMV/PGS
Codec ID/Info : Picture based subtitle format used on BDs/HD-DVDs
Duration : 1 h 42 min
Bit rate : 36.0 kb/s
Count of elements : 2754
Stream size : 26.3 MiB (0%)
Language : Chinese
Default : No
Forced : No

Text #10
ID : 12
Format : PGS
Muxing mode : zlib
Codec ID : S_HDMV/PGS
Codec ID/Info : Picture based subtitle format used on BDs/HD-DVDs
Duration : 1 h 36 min
Bit rate : 27.1 kb/s
Count of elements : 1522
Stream size : 18.7 MiB (0%)
Language : Dutch
Default : No
Forced : No

Text #11
ID : 13
Format : PGS
Muxing mode : zlib
Codec ID : S_HDMV/PGS
Codec ID/Info : Picture based subtitle format used on BDs/HD-DVDs
Duration : 1 h 38 min
Bit rate : 33.2 kb/s
Count of elements : 2120
Stream size : 23.4 MiB (0%)
Language : Hungarian
Default : No
Forced : No

Text #12
ID : 14
Format : PGS
Muxing mode : zlib
Codec ID : S_HDMV/PGS
Codec ID/Info : Picture based subtitle format used on BDs/HD-DVDs
Duration : 1 h 41 min
Bit rate : 21.0 kb/s
Count of elements : 2222
Stream size : 15.2 MiB (0%)
Language : Japanese
Default : No
Forced : No

Text #13
ID : 15
Format : PGS
Muxing mode : zlib
Codec ID : S_HDMV/PGS
Codec ID/Info : Picture based subtitle format used on BDs/HD-DVDs
Duration : 1 h 42 min
Bit rate : 27.6 kb/s
Count of elements : 1964
Stream size : 20.3 MiB (0%)
Language : Polish
Default : No
Forced : No

Text #14
ID : 16
Format : PGS
Muxing mode : zlib
Codec ID : S_HDMV/PGS
Codec ID/Info : Picture based subtitle format used on BDs/HD-DVDs
Duration : 1 h 39 min
Bit rate : 44.9 kb/s
Count of elements : 2422
Stream size : 31.9 MiB (0%)
Language : Thai
Default : No
Forced : No

Text #15
ID : 17
Format : PGS
Muxing mode : zlib
Codec ID : S_HDMV/PGS
Codec ID/Info : Picture based subtitle format used on BDs/HD-DVDs
Duration : 1 h 36 min
Bit rate : 34.0 kb/s
Count of elements : 1938
Stream size : 23.5 MiB (0%)
Language : Turkish
Default : No
Forced : No

Text #16
ID : 18
Format : PGS
Muxing mode : zlib
Codec ID : S_HDMV/PGS
Codec ID/Info : Picture based subtitle format used on BDs/HD-DVDs
Duration : 1 h 35 min
Bit rate : 594 b/s
Count of elements : 60
Stream size : 417 KiB (0%)
Language : French
Default : No
Forced : No

Text #17
ID : 19
Format : PGS
Muxing mode : zlib
Codec ID : S_HDMV/PGS
Codec ID/Info : Picture based subtitle format used on BDs/HD-DVDs
Duration : 1 h 14 min
Bit rate : 659 b/s
Count of elements : 32
Stream size : 362 KiB (0%)
Language : Portuguese
Default : No
Forced : No

Text #18
ID : 20
Format : PGS
Muxing mode : zlib
Codec ID : S_HDMV/PGS
Codec ID/Info : Picture based subtitle format used on BDs/HD-DVDs
Duration : 1 h 14 min
Bit rate : 355 b/s
Count of elements : 20
Stream size : 195 KiB (0%)
Language : Italian
Default : No
Forced : No

Text #19
ID : 21
Format : PGS
Muxing mode : zlib
Codec ID : S_HDMV/PGS
Codec ID/Info : Picture based subtitle format used on BDs/HD-DVDs
Duration : 1 h 14 min
Bit rate : 381 b/s
Count of elements : 24
Stream size : 209 KiB (0%)
Language : German
Default : No
Forced : No

Text #20
ID : 22
Format : PGS
Muxing mode : zlib
Codec ID : S_HDMV/PGS
Codec ID/Info : Picture based subtitle format used on BDs/HD-DVDs
Duration : 1 h 14 min
Bit rate : 482 b/s
Count of elements : 24
Stream size : 265 KiB (0%)
Language : Spanish
Default : No
Forced : No

Text #21
ID : 23
Format : PGS
Muxing mode : zlib
Codec ID : S_HDMV/PGS
Codec ID/Info : Picture based subtitle format used on BDs/HD-DVDs
Duration : 26 min 30 s
Bit rate : 289 b/s
Count of elements : 4
Stream size : 56.2 KiB (0%)
Language : Hungarian
Default : No
Forced : No

Text #22
ID : 24
Format : PGS
Muxing mode : zlib
Codec ID : S_HDMV/PGS
Codec ID/Info : Picture based subtitle format used on BDs/HD-DVDs
Duration : 2 s 2 ms
Bit rate : 145 kb/s
Count of elements : 2
Stream size : 35.3 KiB (0%)
Language : Thai
Default : No
Forced : No

Text #23
ID : 25
Format : PGS
Muxing mode : zlib
Codec ID : S_HDMV/PGS
Codec ID/Info : Picture based subtitle format used on BDs/HD-DVDs
Duration : 1 h 12 min
Bit rate : 353 b/s
Count of elements : 22
Stream size : 187 KiB (0%)
Language : Turkish
Default : No
Forced : No





The Adventures of Priscilla, Queen of the Desert (1994)


The Adventures of Priscilla, Queen of the Desert (1994)


The Adventures of Priscilla, Queen of the Desert (1994)


The Adventures of Priscilla, Queen of the Desert (1994)


The Adventures of Priscilla, Queen of the Desert (1994)