Tags
Language
Tags

The Best of Enemies (2019)

Posted By: Tavaz
1080p (FullHD) / BDRip IMDb
The Best of Enemies (2019)

The Best of Enemies (2019)
BDRip | MKV | 1920x1080 | English | H264 @ 5760 kbps | AC-3 @ 448 kbps | 2 h 13 min | 5.80 GiB
Subtitles: English
Genre: Drama, History

Centers on the unlikely relationship between Ann Atwater, an outspoken civil rights activist, and C.P. Ellis, a local Ku Klux Klan leader who reluctantly co-chaired a community summit, battling over the desegregation of schools in Durham, North Carolina during the racially-charged summer of 1971. The incredible events that unfolded would change Durham and the lives of Atwater and Ellis forever.

7b3b9e5139f94f8a82f105c9bd01d6e9.mkv (5.8 GB)



General
Unique ID : 258790823756907636291114534553413127260 (0xC2B14CB7DE457C403B4B2B3471DE8C5C)
Complete name : ./7b3b9e5139f94f8a82f105c9bd01d6e9.mkv
Format : Matroska
Format version : Version 4 / Version 2
File size : 5.80 GiB
Duration : 2 h 13 min
Overall bit rate : 6 208 kb/s
Movie name : The.Best.of.Enemies.2019.1080p.BluRay.x264-nikt0
Encoded date : UTC 2020-02-08 23:31:49 / UTC 2020-02-08T01:36:41Z
Writing application : mkvmerge v38.0.0 ('The Silent Type') 64-bit
Writing library : libebml v1.3.9 + libmatroska v1.5.2 / Lavf57.7.2

Video
ID : 1
Format : AVC
Format/Info : Advanced Video Codec
Format profile : High@L4
Format settings : CABAC / 4 Ref Frames
Format settings, CABAC : Yes
Format settings, RefFrames : 4 frames
Codec ID : V_MPEG4/ISO/AVC
Duration : 2 h 13 min
Bit rate : 5 760 kb/s
Width : 1 920 pixels
Height : 1 080 pixels
Display aspect ratio : 16:9
Frame rate mode : Constant
Frame rate : 23.976 (24000/1001) FPS
Color space : YUV
Chroma subsampling : 4:2:0
Bit depth : 8 bits
Scan type : Progressive
Bits/(Pixel*Frame) : 0.116
Stream size : 5.27 GiB (91%)
Writing library : x264 core 155 r2901 7d0ff22
Encoding settings : cabac=1 / ref=4 / deblock=1:-3:-3 / analyse=0x3:0x133 / me=umh / subme=9 / psy=1 / psy_rd=1.10:0.25 / mixed_ref=1 / me_range=32 / chroma_me=1 / trellis=2 / 8x8dct=1 / cqm=0 / deadzone=6,6 / fast_pskip=1 / chroma_qp_offset=-4 / threads=34 / lookahead_threads=3 / sliced_threads=0 / nr=0 / decimate=1 / interlaced=0 / bluray_compat=0 / constrained_intra=0 / bframes=6 / b_pyramid=2 / b_adapt=2 / b_bias=0 / direct=3 / weightb=1 / open_gop=0 / weightp=2 / keyint=240 / keyint_min=24 / scenecut=40 / intra_refresh=0 / rc_lookahead=40 / rc=2pass / mbtree=1 / bitrate=5760 / ratetol=1.0 / qcomp=0.60 / qpmin=0 / qpmax=69 / qpstep=4 / cplxblur=20.0 / qblur=0.5 / vbv_maxrate=20000 / vbv_bufsize=25000 / nal_hrd=none / filler=0 / ip_ratio=1.40 / aq=1:1.00
Default : Yes
Forced : No
Color range : Limited
Color primaries : BT.709
Transfer characteristics : BT.709
Matrix coefficients : BT.709
Statistics Tags Issue : mkvmerge v38.0.0 ('The Silent Type') 64-bit 2020-02-08 23:31:49 / mkvmerge v38.0.0 ('The Silent Type') 64-bit 2020-02-08 23:31:49 / UTC 2020-02-08T01:36:41Z
FromStats_BitRate : 5758468
FromStats_Duration : 02:13:47.562000000
FromStats_FrameCount : 192469
FromStats_StreamSize : 5778307688

Audio
ID : 2
Format : AC-3
Format/Info : Audio Coding 3
Format settings, Endianness : Big
Codec ID : A_AC3
Duration : 2 h 13 min
Bit rate mode : Constant
Bit rate : 448 kb/s
Channel(s) : 6 channels
Channel positions : Front: L C R, Side: L R, LFE
Sampling rate : 48.0 kHz
Frame rate : 31.250 FPS (1536 SPF)
Bit depth : 16 bits
Compression mode : Lossy
Stream size : 429 MiB (7%)
Title : Surround
Language : English
Service kind : Complete Main
Default : Yes
Forced : No
Statistics Tags Issue : mkvmerge v38.0.0 ('The Silent Type') 64-bit 2020-02-08 23:31:49 / mkvmerge v38.0.0 ('The Silent Type') 64-bit 2020-02-08 23:31:49 / UTC 2020-02-08T01:36:41Z
FromStats_BitRate : 448000
FromStats_Duration : 02:13:47.552000000
FromStats_FrameCount : 250861
FromStats_StreamSize : 449542912

Text
ID : 3
Format : UTF-8
Codec ID : S_TEXT/UTF8
Codec ID/Info : UTF-8 Plain Text
Language : English
Default : Yes
Forced : No
Statistics Tags Issue : mkvmerge v38.0.0 ('The Silent Type') 64-bit 2020-02-08 23:31:49 / mkvmerge v38.0.0 ('The Silent Type') 64-bit 2020-02-08 23:31:49 / UTC 2020-02-08T01:36:41Z
FromStats_BitRate : 64
FromStats_Duration : 02:06:01.679000000
FromStats_FrameCount : 1725
FromStats_StreamSize : 60928

Menu
00:00:00.000 : :Chapter 1
00:04:28.393 : :Chapter 2
00:10:38.429 : :Chapter 3
00:15:57.915 : :Chapter 4
00:18:57.386 : :Chapter 5
00:25:12.219 : :Chapter 6
00:32:07.759 : :Chapter 7
00:40:08.990 : :Chapter 8
00:46:43.426 : :Chapter 9
00:52:23.724 : :Chapter 10
00:57:22.105 : :Chapter 11
01:03:12.998 : :Chapter 12
01:13:21.939 : :Chapter 13
01:22:00.290 : :Chapter 14
01:28:30.472 : :Chapter 15
01:35:46.658 : :Chapter 16
01:43:12.770 : :Chapter 17
01:51:25.721 : :Chapter 18
01:56:47.959 : :Chapter 19
02:04:38.471 : :Chapter 20





The Best of Enemies (2019)


The Best of Enemies (2019)


The Best of Enemies (2019)


The Best of Enemies (2019)


The Best of Enemies (2019)