Tags
Language
Tags

The Big Ugly (2020)

Posted By: Tavaz
720p (HD) / BDRip IMDb
The Big Ugly (2020)

The Big Ugly (2020)
BDRip | MKV | 1280x720 | English | H264 @ 2560 kbps | AC-3 @ 448 kbps | 1 h 46 min | 2.24 GiB
Subtitles: English
Genre: Crime, Drama

Neeyln has always been the loyal enforcer for crime boss Harris back in London, taking care of problems and people that disrupt his illicit business. When Harris strikes a deal with an old friend – American oilman Preston – they find themselves in the wild hills of West Virginia. Contracts are signed and the whiskey flows in celebration, but overnight Neelyn's girlfriend disappears, last seen with Preston's wayward son Junior. Lines are drawn between family and friends, but nothing will stop Neelyn from getting answers – and retribution.

9153296c54f4e416f5512a5402821770.mkv (2.2 GB)



General
Unique ID : 193067613558212074987111761317927074154 (0x913F7846680118612B8E5A509378396A)
Complete name : ./9153296c54f4e416f5512a5402821770.mkv
Format : Matroska
Format version : Version 4 / Version 2
File size : 2.24 GiB
Duration : 1 h 46 min
Overall bit rate : 3 007 kb/s
Movie name : The.Big.Ugly.2020.720p.BluRay.x264-x0r
Encoded date : UTC 2021-06-18 02:37:16
Writing application : mkvmerge v7.7.0 ('Six Voices') 64bit built on Mar 1 2015 01:50:05
Writing library : libebml v1.3.1 + libmatroska v1.4.2

Video
ID : 1
Format : AVC
Format/Info : Advanced Video Codec
Format profile : High@L4
Format settings : CABAC / 8 Ref Frames
Format settings, CABAC : Yes
Format settings, RefFrames : 8 frames
Codec ID : V_MPEG4/ISO/AVC
Duration : 1 h 46 min
Bit rate : 2 560 kb/s
Width : 1 280 pixels
Height : 720 pixels
Display aspect ratio : 16:9
Frame rate mode : Constant
Frame rate : 23.976 (24000/1001) FPS
Color space : YUV
Chroma subsampling : 4:2:0
Bit depth : 8 bits
Scan type : Progressive
Bits/(Pixel*Frame) : 0.116
Stream size : 1.91 GiB (85%)
Writing library : x264 core 148 r2643 5c65704
Encoding settings : cabac=1 / ref=8 / deblock=1:-2:-2 / analyse=0x3:0x133 / me=umh / subme=9 / psy=1 / psy_rd=1.00:0.25 / mixed_ref=1 / me_range=24 / chroma_me=1 / trellis=2 / 8x8dct=1 / cqm=0 / deadzone=21,11 / fast_pskip=1 / chroma_qp_offset=-4 / threads=12 / lookahead_threads=1 / sliced_threads=0 / nr=0 / decimate=1 / interlaced=0 / bluray_compat=0 / constrained_intra=0 / bframes=4 / b_pyramid=2 / b_adapt=2 / b_bias=0 / direct=3 / weightb=1 / open_gop=0 / weightp=2 / keyint=240 / keyint_min=24 / scenecut=40 / intra_refresh=0 / rc_lookahead=120 / rc=2pass / mbtree=1 / bitrate=2560 / ratetol=1.0 / qcomp=0.60 / qpmin=0 / qpmax=69 / qpstep=4 / cplxblur=20.0 / qblur=0.5 / vbv_maxrate=20000 / vbv_bufsize=25000 / nal_hrd=none / filler=0 / ip_ratio=1.40 / aq=1:1.00
Language : English
Default : Yes
Forced : No
Color range : Limited
Color primaries : BT.709
Transfer characteristics : BT.709
Matrix coefficients : BT.709

Audio
ID : 2
Format : AC-3
Format/Info : Audio Coding 3
Format settings, Endianness : Big
Codec ID : A_AC3
Duration : 1 h 46 min
Bit rate mode : Constant
Bit rate : 448 kb/s
Channel(s) : 6 channels
Channel positions : Front: L C R, Side: L R, LFE
Sampling rate : 48.0 kHz
Frame rate : 31.250 FPS (1536 SPF)
Bit depth : 16 bits
Compression mode : Lossy
Delay relative to video : 334 ms
Stream size : 341 MiB (15%)
Title : Surround
Language : English
Service kind : Complete Main
Default : Yes
Forced : No

Text
ID : 3
Format : UTF-8
Codec ID : S_TEXT/UTF8
Codec ID/Info : UTF-8 Plain Text
Duration : 1 h 45 min
Bit rate : 52 b/s
Count of elements : 1390
Stream size : 40.4 KiB (0%)
Language : English
Default : Yes
Forced : No

Menu
00:00:00.000 : :Chapter 1
00:08:59.247 : :Chapter 2
00:16:15.600 : :Chapter 3
00:25:06.964 : :Chapter 4
00:32:19.938 : :Chapter 5
00:41:15.390 : :Chapter 6
00:48:56.725 : :Chapter 7
00:59:44.915 : :Chapter 8
01:05:34.514 : :Chapter 9
01:13:00.334 : :Chapter 10
01:20:51.972 : :Chapter 11
01:29:51.803 : :Chapter 12
01:41:01.430 : :Chapter 13





The Big Ugly (2020)


The Big Ugly (2020)


The Big Ugly (2020)


The Big Ugly (2020)


The Big Ugly (2020)