PBS - The Bomb (2015)

Posted By: Tutorial
PBS - The Bomb (2015)

PBS - The Bomb (2015)
HDTV | 1280 x 720 | .MP4/AVC @ 2407 Kbps | 1h 54mn | 2.05 GB
Audio: English AAC 141 Kbps, 2 channels | Subs: English
Genre: Documentary, History

The Bomb tells the story of the most powerful and destructive device ever invented. Learn how humans harnessed this incredible power and what challenges we have faced living with it since 1945. With newly restored footage of nuclear weaponry, some of which has only recently been declassified, go behind the scenes of the first atomic bomb, revealing how it was developed and how it changed the planet, ushering in a new era and reshaping our lives even today. Rare footage from bomb tests through the 1950s and 60s demonstrates the power and strangely compelling beauty of nuclear explosions. Hear from foremost nuclear bomb historian Richard Rhodes, former Secretary of Defense William Perry, and former Secretary of State George Shultz, as well as from scientists, weapons designers, pilots, witnesses, and ordinary men and women who have lived and worked with the nuclear bomb. Examine the choices society has made–and continues to make–to live with an invention that could destroy the planet.
Related Documentaries:
Trinity and Beyond: The Atomic Bomb Movie (1995)
Smithsonian Channel - Fall of Japan: In Color (2015)
NHK - Executive Non Decision: A-Bomb History Rewritten (2016)
Race for The World's First Atomic Bomb: A Thousand Days of Fear (2015)
PBS Nova - Secrets, Lies and Atomic Spies (2002)
Discovery Channel - The Battle of Chernobyl (2006)
NHK - The Heavy Water Wars (2015)
Life After: Chernobyl (2014)
BBC - The Story of Science (2010)
PBS - The Mystery of Matter: Search for the Elements (2015)


General
Complete name : PBS.The.Bomb.mp4
Format : MPEG-4
Format profile : Base Media
Codec ID : isom
File size : 2.05 GiB
Duration : 1h 54mn
Overall bit rate mode : Variable
Overall bit rate : 2 552 Kbps
Encoded date : UTC 2015-07-31 10:08:04
Tagged date : UTC 2015-07-31 10:08:04

Video
ID : 1
Format : AVC
Format/Info : Advanced Video Codec
Format profile : High@L4.1
Format settings, CABAC : Yes
Format settings, ReFrames : 9 frames
Codec ID : avc1
Codec ID/Info : Advanced Video Coding
Duration : 1h 54mn
Bit rate : 2 407 Kbps
Maximum bit rate : 16.0 Mbps
Width : 1 280 pixels
Height : 720 pixels
Display aspect ratio : 16:9
Frame rate mode : Constant
Frame rate : 23.976 fps
Color space : YUV
Chroma subsampling : 4:2:0
Bit depth : 8 bits
Scan type : Progressive
Bits/(Pixel*Frame) : 0.109
Stream size : 1.93 GiB (94%)
Writing library : x264 core 148 r2579 73ae2d1
Encoding settings : cabac=1 / ref=9 / deblock=1:-1:-1 / analyse=0x3:0x133 / me=umh / subme=10 / psy=1 / psy_rd=1.00:0.00 / mixed_ref=1 / me_range=24 / chroma_me=1 / trellis=2 / 8x8dct=1 / cqm=0 / deadzone=21,11 / fast_pskip=1 / chroma_qp_offset=-2 / threads=3 / lookahead_threads=1 / sliced_threads=0 / nr=0 / decimate=1 / interlaced=0 / bluray_compat=0 / constrained_intra=0 / bframes=9 / b_pyramid=2 / b_adapt=2 / b_bias=0 / direct=3 / weightb=1 / open_gop=0 / weightp=2 / keyint=288 / keyint_min=23 / scenecut=40 / intra_refresh=0 / rc_lookahead=60 / rc=crf / mbtree=1 / crf=21.0 / qcomp=0.60 / qpmin=0 / qpmax=69 / qpstep=4 / vbv_maxrate=62500 / vbv_bufsize=78125 / crf_max=0.0 / nal_hrd=none / filler=0 / ip_ratio=1.40 / aq=1:1.00
Encoded date : UTC 2015-07-31 09:21:58
Tagged date : UTC 2015-07-31 10:09:00

Audio
ID : 2
Format : AAC
Format/Info : Advanced Audio Codec
Format profile : LC
Codec ID : 40
Duration : 1h 54mn
Bit rate mode : Variable
Bit rate : 141 Kbps
Maximum bit rate : 188 Kbps
Channel(s) : 2 channels
Channel positions : Front: L R
Sampling rate : 48.0 KHz
Compression mode : Lossy
Stream size : 116 MiB (6%)
Language : English
Encoded date : UTC 2015-07-31 09:58:27
Tagged date : UTC 2015-07-31 10:09:00

Text
ID : 3
Format : Timed text
Codec ID : tx3g
Duration : 1h 54mn
Bit rate mode : Variable
Bit rate : 123 bps
Stream size : 104 KiB (0%)
Language : English
Encoded date : UTC 2015-07-31 10:09:00
Tagged date : UTC 2015-07-31 10:09:00
Screenshots

PBS - The Bomb (2015)

PBS - The Bomb (2015)

PBS - The Bomb (2015)

Welcome to my blog - daily update!

PBS - The Bomb (2015)