Tags
Language
Tags

The Breakfast Club (1985) 4K CRITERION RESTORED Plus Commentaries

Posted By: Tavaz
1080p (FullHD) / BDRip IMDb
The Breakfast Club (1985) 4K CRITERION RESTORED Plus Commentaries

The Breakfast Club (1985)
BDRip | MKV | 1920x1040 | English | H264 | FLAC | 1 h 37 min | 7.00 GiB
Subtitles: English
Genre: Comedy, Drama, Family

Five high school students, all different stereotypes, meet in detention, where they pour their hearts out to each other, and discover how they have a lot more in common than they thought.

d7bfc1046bab46de96ae7ac6a58ed334.mkv (7.0 GB)



General
Unique ID : 137908617214544161914834824926513817290 (0x67C03BC9D17BA8362C8F9831F02766CA)
Complete name : ./d7bfc1046bab46de96ae7ac6a58ed334.mkv
Format : Matroska
Format version : Version 4 / Version 2
File size : 7.00 GiB
Duration : 1 h 37 min
Overall bit rate mode : Variable
Overall bit rate : 10.3 Mb/s
Encoded date : UTC 2018-01-06T18:07:41Z
Writing application : HandBrake 1.0.7 2017040900
Writing library : Lavf57.7.2

Video
ID : 1
Format : AVC
Format/Info : Advanced Video Codec
Format profile : Main@L4
Format settings : CABAC / 4 Ref Frames
Format settings, CABAC : Yes
Format settings, RefFrames : 4 frames
Codec ID : V_MPEG4/ISO/AVC
Duration : 1 h 37 min
Width : 1 920 pixels
Height : 1 040 pixels
Display aspect ratio : 1.85:1
Frame rate mode : Constant
Frame rate : 23.976 (24000/1001) FPS
Color space : YUV
Chroma subsampling : 4:2:0
Bit depth : 8 bits
Scan type : Progressive
Writing library : x264 core 148 r2708 86b7198
Encoding settings : cabac=1 / ref=4 / deblock=1:-3:-3 / analyse=0x1:0x131 / me=umh / subme=7 / psy=1 / psy_rd=1.00:0.00 / mixed_ref=1 / me_range=24 / chroma_me=1 / trellis=2 / 8x8dct=0 / cqm=0 / deadzone=21,11 / fast_pskip=0 / chroma_qp_offset=-2 / threads=12 / lookahead_threads=3 / sliced_threads=0 / nr=0 / decimate=1 / interlaced=0 / bluray_compat=0 / constrained_intra=0 / bframes=5 / b_pyramid=2 / b_adapt=2 / b_bias=0 / direct=3 / weightb=1 / open_gop=0 / weightp=1 / keyint=240 / keyint_min=24 / scenecut=40 / intra_refresh=0 / rc_lookahead=30 / rc=crf / mbtree=1 / crf=20.0 / qcomp=0.60 / qpmin=0 / qpmax=69 / qpstep=4 / vbv_maxrate=20000 / vbv_bufsize=25000 / crf_max=0.0 / nal_hrd=none / filler=0 / ip_ratio=1.40 / aq=1:1.00
Default : Yes
Forced : No
Color range : Limited
Color primaries : BT.709
Transfer characteristics : BT.709
Matrix coefficients : BT.709

Audio #1
ID : 2
Format : FLAC
Format/Info : Free Lossless Audio Codec
Codec ID : A_FLAC
Duration : 1 h 37 min
Bit rate mode : Variable
Channel(s) : 1 channel
Channel positions : Front: C
Sampling rate : 48.0 kHz
Bit depth : 16 bits
Delay relative to video : 50 ms
Title : FLAC Original Mono Audio
Language : English
Default : Yes
Forced : No

Audio #2
ID : 3
Format : DTS
Format/Info : Digital Theater Systems
Mode : 16
Format settings, Endianness : Big
Codec ID : A_DTS
Duration : 1 h 37 min
Bit rate mode : Constant
Bit rate : 1 509 kb/s
Channel(s) : 6 channels
Channel positions : Front: L C R, Side: L R, LFE
Sampling rate : 48.0 kHz
Frame rate : 93.750 FPS (512 SPF)
Bit depth : 24 bits
Compression mode : Lossy
Delay relative to video : 53 ms
Stream size : 1.02 GiB (15%)
Title : DTS 5.1 Mix Audio
Language : English
Default : No
Forced : No

Audio #3
ID : 4
Format : AC-3
Format/Info : Audio Coding 3
Format settings, Endianness : Big
Codec ID : A_AC3
Duration : 1 h 37 min
Bit rate mode : Constant
Bit rate : 192 kb/s
Channel(s) : 1 channel
Channel positions : Front: C
Sampling rate : 48.0 kHz
Frame rate : 31.250 FPS (1536 SPF)
Bit depth : 16 bits
Compression mode : Lossy
Delay relative to video : 64 ms
Stream size : 133 MiB (2%)
Title : Commentary with Actors Anthony Michael Hall and Judd Nelson (from the 2008 DVD)
Language : English
Service kind : Complete Main
Default : No
Forced : No

Text
ID : 5
Format : PGS
Codec ID : S_HDMV/PGS
Codec ID/Info : Picture based subtitle format used on BDs/HD-DVDs
Language : English
Default : No
Forced : No

Menu
00:00:00.000 : :Chapter 1
00:05:59.860 : :Chapter 2
00:15:37.311 : :Chapter 3
00:21:17.526 : :Chapter 4
00:30:26.825 : :Chapter 5
00:37:15.942 : :Chapter 6
00:43:31.317 : :Chapter 7
00:48:44.839 : :Chapter 8
00:55:45.467 : :Chapter 9
01:06:45.543 : :Chapter 10
01:26:23.929 : :Chapter 11
01:32:23.246 : :Chapter 12





The Breakfast Club (1985) 4K CRITERION RESTORED Plus Commentaries


The Breakfast Club (1985) 4K CRITERION RESTORED Plus Commentaries


The Breakfast Club (1985) 4K CRITERION RESTORED Plus Commentaries


The Breakfast Club (1985) 4K CRITERION RESTORED Plus Commentaries


The Breakfast Club (1985) 4K CRITERION RESTORED Plus Commentaries