Tags
Language
Tags

The Climax (1944)

Posted By: Tavaz
1080p (FullHD) / BDRip IMDb
The Climax (1944)

The Climax (1944)
BDRip | MKV | 1480x1080 | English | H264 @ 12480 kbps | FLAC @ 227 kbps | 1 h 26 min | 7.72 GiB
Subtitles: English
Genre: Horror, Thriller

Dr. Hohner (Karloff), theatre physician at the Vienna Royal Theatre, murders his mistress, the star soprano when his jealousy drives him to the point of mad obsession. Ten years later, another young singer (Foster) reminds Hohner of the late diva, and his old mania kicks in. Hohner wants to prevent her from singing for anyone but him, even if it means silencing her forever. The singer's fiancée (Bey) rushes to save her in the film's climax.

536487dcad7ef87f24e2288100d8fdc5.mkv (7.7 GB)



General
Unique ID : 192652842982698484150040410924928392031 (0x90EF9681BD5ECA9570EF805C0E7EDB5F)
Complete name : ./536487dcad7ef87f24e2288100d8fdc5.mkv
Format : Matroska
Format version : Version 4 / Version 2
File size : 7.72 GiB
Duration : 1 h 26 min
Overall bit rate mode : Variable
Overall bit rate : 12.8 Mb/s
Movie name : The Climax [1944] 1080p BluRay - HJ
Encoded date : UTC 2020-05-22 13:30:57
Writing application : mkvmerge v38.0.0 ('The Silent Type') 64-bit
Writing library : libebml v1.3.9 + libmatroska v1.5.2

Video
ID : 1
Format : AVC
Format/Info : Advanced Video Codec
Format profile : High@L4.1
Format settings : CABAC / 5 Ref Frames
Format settings, CABAC : Yes
Format settings, RefFrames : 5 frames
Codec ID : V_MPEG4/ISO/AVC
Duration : 1 h 26 min
Bit rate : 12.5 Mb/s
Width : 1 480 pixels
Height : 1 080 pixels
Display aspect ratio : 1.370
Frame rate mode : Constant
Frame rate : 23.976 (24000/1001) FPS
Color space : YUV
Chroma subsampling : 4:2:0
Bit depth : 8 bits
Scan type : Progressive
Bits/(Pixel*Frame) : 0.326
Stream size : 7.51 GiB (97%)
Writing library : x264 core 148 r2643 5c65704
Encoding settings : cabac=1 / ref=5 / deblock=1:-2:-2 / analyse=0x3:0x133 / me=umh / subme=9 / psy=1 / psy_rd=1.00:0.00 / mixed_ref=1 / me_range=24 / chroma_me=1 / trellis=2 / 8x8dct=1 / cqm=0 / deadzone=21,11 / fast_pskip=0 / chroma_qp_offset=-2 / threads=12 / lookahead_threads=1 / sliced_threads=0 / nr=0 / decimate=1 / interlaced=0 / bluray_compat=0 / constrained_intra=0 / bframes=6 / b_pyramid=2 / b_adapt=2 / b_bias=0 / direct=3 / weightb=1 / open_gop=0 / weightp=2 / keyint=240 / keyint_min=24 / scenecut=40 / intra_refresh=0 / rc_lookahead=50 / rc=crf / mbtree=0 / crf=20.5 / qcomp=0.60 / qpmin=0 / qpmax=69 / qpstep=4 / vbv_maxrate=62500 / vbv_bufsize=78125 / crf_max=0.0 / nal_hrd=none / filler=0 / ip_ratio=1.40 / pb_ratio=1.30 / aq=3:0.80
Default : Yes
Forced : No
Color range : Limited
Color primaries : BT.709
Transfer characteristics : BT.709
Matrix coefficients : BT.709

Audio #1
ID : 2
Format : FLAC
Format/Info : Free Lossless Audio Codec
Codec ID : A_FLAC
Duration : 1 h 26 min
Bit rate mode : Variable
Bit rate : 227 kb/s
Channel(s) : 1 channel
Channel positions : Front: C
Sampling rate : 48.0 kHz
Frame rate : 11.719 FPS (4096 SPF)
Bit depth : 16 bits
Delay relative to video : -5 ms
Stream size : 140 MiB (2%)
Writing library : libFLAC 1.2.1 (UTC 2007-09-17)
Language : English
Default : Yes
Forced : No

Audio #2
ID : 3
Format : AAC
Format/Info : Advanced Audio Codec
Format profile : LC
Codec ID : A_AAC-2
Duration : 1 h 26 min
Bit rate : 96.0 kb/s
Channel(s) : 2 channels
Channel positions : Front: L R
Sampling rate : 48.0 kHz
Frame rate : 46.875 FPS (1024 SPF)
Compression mode : Lossy
Delay relative to video : 4 ms
Stream size : 59.1 MiB (1%)
Title : Commentary track by Film Historians Kim Newman and Stephen Jones
Language : English
Default : No
Forced : No

Text
ID : 4
Format : PGS
Muxing mode : zlib
Codec ID : S_HDMV/PGS
Codec ID/Info : Picture based subtitle format used on BDs/HD-DVDs
Duration : 1 h 25 min
Bit rate : 35.9 kb/s
Count of elements : 1757
Stream size : 21.9 MiB (0%)
Language : English
Default : No
Forced : No

Menu
00:00:00.000 : :Chapter 1
00:09:27.317 : :Chapter 2
00:13:35.148 : :Chapter 3
00:18:52.882 : :Chapter 4
00:29:27.724 : :Chapter 5
00:35:36.134 : :Chapter 6
00:45:24.180 : :Chapter 7
00:53:15.025 : :Chapter 8
01:00:04.684 : :Chapter 9
01:05:41.229 : :Chapter 10
01:10:37.066 : :Chapter 11
01:17:20.261 : :Chapter 12





The Climax (1944)


The Climax (1944)


The Climax (1944)


The Climax (1944)


The Climax (1944)