Tags
Language
Tags

The Dark Knight Rises (2012)

Posted By: Tavaz
1080p (FullHD) / BDRip IMDb
The Dark Knight Rises (2012)

The Dark Knight Rises (2012)
BDRip | MKV | 1920x1080 | English | H265 @ 5999 kbps | AC-3 @ 640 kbps | 2 h 44 min | 7.63 GiB
Subtitles: English
Genre: Action, Crime, Drama, Thriller

Following the death of District Attorney Harvey Dent, Batman assumes responsibility for Dent's crimes to protect the late attorney's reputation and is subsequently hunted by the Gotham City Police Department. Eight years later, Batman encounters the mysterious Selina Kyle and the villainous Bane, a new terrorist leader who overwhelms Gotham's finest. The Dark Knight resurfaces to protect a city that has branded him an enemy.

63b9120c4b3ae526e2397ed15df6ec18.mkv (7.6 GB)



General
Unique ID : 303773084340715402735037557464572872678 (0xE4889164B77B8180EF9CC369A0E3C7E6)
Complete name : ./63b9120c4b3ae526e2397ed15df6ec18.mkv
Format : Matroska
Format version : Version 4 / Version 2
File size : 7.63 GiB
Duration : 2 h 44 min
Overall bit rate : 6 641 kb/s
Movie name : The Dark Knight Rises (2012)
Encoded date : UTC 2020-09-01 07:40:48
Writing application : mkvmerge v47.0.0 ('Black Flag') 64-bit
Writing library : libebml v1.3.10 + libmatroska v1.5.2 / Lavf58.20.100

Video
ID : 1
Format : HEVC
Format/Info : High Efficiency Video Coding
Format profile : Main@L4@Main
Codec ID : V_MPEGH/ISO/HEVC
Duration : 2 h 44 min
Bit rate : 6 000 kb/s
Width : 1 920 pixels
Height : 1 080 pixels
Display aspect ratio : 16:9
Frame rate mode : Variable
Frame rate : 23.976 FPS
Color space : YUV
Chroma subsampling : 4:2:0
Bit depth : 8 bits
Bits/(Pixel*Frame) : 0.121
Stream size : 6.90 GiB (90%)
Writing library : x265 2.9:[Linux][GCC 8.2.0][64 bit] 8bit+10bit+12bit
Encoding settings : cpuid=1111039 / frame-threads=3 / wpp / no-pmode / no-pme / no-psnr / no-ssim / log-level=2 / input-csp=1 / input-res=1920x1080 / interlace=0 / total-frames=0 / level-idc=0 / high-tier=1 / uhd-bd=0 / ref=3 / no-allow-non-conformance / no-repeat-headers / annexb / no-aud / no-hrd / info / hash=0 / no-temporal-layers / open-gop / min-keyint=23 / keyint=250 / gop-lookahead=0 / bframes=4 / b-adapt=2 / b-pyramid / bframe-bias=0 / rc-lookahead=20 / lookahead-slices=6 / scenecut=40 / radl=0 / no-intra-refresh / ctu=64 / min-cu-size=8 / no-rect / no-amp / max-tu-size=32 / tu-inter-depth=1 / tu-intra-depth=1 / limit-tu=0 / rdoq-level=0 / dynamic-rd=0.00 / no-ssim-rd / signhide / no-tskip / nr-intra=0 / nr-inter=0 / no-constrained-intra / strong-intra-smoothing / max-merge=2 / limit-refs=3 / no-limit-modes / me=1 / subme=2 / merange=57 / temporal-mvp / weightp / no-weightb / no-analyze-src-pics / deblock=0:0 / sao / no-sao-non-deblock / rd=3 / no-early-skip / rskip / no-fast-intra / no-tskip-fast / no-cu-lossless / no-b-intra / no-splitrd-skip / rdpenalty=0 / psy-rd=2.00 / psy-rdoq=0.00 / no-rd-refine / no-lossless / cbqpoffs=0 / crqpoffs=0 / rc=abr / bitrate=6000 / qcomp=0.70 / qpstep=4 / stats-write=0 / stats-read=2 / cplxblur=20.0 / qblur=0.5 / ipratio=1.40 / pbratio=1.30 / aq-mode=1 / aq-strength=1.00 / cutree / zone-count=0 / no-strict-cbr / qg-size=32 / no-rc-grain / qpmax=69 / qpmin=0 / no-const-vbv / sar=1 / overscan=0 / videoformat=5 / range=0 / colorprim=2 / transfer=2 / colormatrix=2 / chromaloc=0 / display-window=0 / max-cll=0,0 / min-luma=0 / max-luma=255 / log2-max-poc-lsb=8 / vui-timing-info / vui-hrd-info / slices=1 / no-opt-qp-pps / no-opt-ref-list-length-pps / no-multi-pass-opt-rps / scenecut-bias=0.05 / no-opt-cu-delta-qp / no-aq-motion / no-hdr / no-hdr-opt / no-dhdr10-opt / no-idr-recovery-sei / analysis-reuse-level=5 / scale-factor=0 / refine-intra=0 / refine-inter=0 / refine-mv=0 / no-limit-sao / ctu-info=0 / no-lowpass-dct / refine-mv-type=0 / copy-pic=1 / max-ausize-factor=1.0 / no-dynamic-refine / no-single-sei
Language : English
Default : Yes
Forced : No

Audio
ID : 2
Format : AC-3
Format/Info : Audio Coding 3
Format settings, Endianness : Big
Codec ID : A_AC3
Duration : 2 h 44 min
Bit rate mode : Constant
Bit rate : 640 kb/s
Channel(s) : 6 channels
Channel positions : Front: L C R, Side: L R, LFE
Sampling rate : 48.0 kHz
Frame rate : 31.250 FPS (1536 SPF)
Bit depth : 16 bits
Compression mode : Lossy
Stream size : 753 MiB (10%)
Title : Dolby Digital 5.1 (Surround)
Writing library : Lavc58.35.100 ac3
Language : English
Service kind : Complete Main
Default : Yes
Forced : No

Text
ID : 3
Format : UTF-8
Codec ID : S_TEXT/UTF8
Codec ID/Info : UTF-8 Plain Text
Duration : 2 h 43 min
Bit rate : 58 b/s
Count of elements : 1912
Stream size : 70.2 KiB (0%)
Title : English (SDH)
Language : English
Default : Yes
Forced : No

Menu
00:00:00.000 : :00:00:00.000
00:09:02.834 : :00:09:02.834
00:19:08.522 : :00:19:08.522
00:30:15.856 : :00:30:15.856
00:41:08.800 : :00:41:08.800
00:51:09.525 : :00:51:09.525
01:00:29.668 : :01:00:29.668
01:10:04.033 : :01:10:04.033
01:20:13.475 : :01:20:13.475
01:31:00.580 : :01:31:00.580
01:39:24.292 : :01:39:24.292
01:48:58.490 : :01:48:58.490
02:00:21.589 : :02:00:21.589
02:10:47.673 : :02:10:47.673
02:19:12.636 : :02:19:12.636
02:30:14.631 : :02:30:14.631
02:36:50.526 : :02:36:50.526





The Dark Knight Rises (2012)


The Dark Knight Rises (2012)


The Dark Knight Rises (2012)


The Dark Knight Rises (2012)


The Dark Knight Rises (2012)