Tags
Language
Tags

The Dark Knight Rises (2012)

Posted By: Tavaz
1080p (FullHD) / BDRip IMDb
The Dark Knight Rises (2012)

The Dark Knight Rises (2012)
BDRip | MOV | 1920x1080 | English | H264 @ 2986 kbps | AC-3 @ 448 kbps | 2 h 44 min | 3.96 GiB
Subtitles: English
Genre: Action, Crime, Drama, Thriller

Following the death of District Attorney Harvey Dent, Batman assumes responsibility for Dent's crimes to protect the late attorney's reputation and is subsequently hunted by the Gotham City Police Department. Eight years later, Batman encounters the mysterious Selina Kyle and the villainous Bane, a new terrorist leader who overwhelms Gotham's finest. The Dark Knight resurfaces to protect a city that has branded him an enemy.

4a2151845d3ac80da0adbf143f6b921a.mp4 (4.0 GB)



General
Complete name : ./4a2151845d3ac80da0adbf143f6b921a.mp4
Format : MPEG-4
Format profile : Base Media / Version 2
Codec ID : mp42 (mp42/isom/avc1)
File size : 3.96 GiB
Duration : 2 h 44 min
Overall bit rate mode : Variable
Overall bit rate : 3 446 kb/s
Movie name : The.Dark.Knight.Rises.2012.1080p.BluRay.H264.AC3.DD5.1
Encoded date : UTC 2020-05-18 02:41:50
Tagged date : UTC 2020-05-18 02:58:17
Writing application : DVDFab 11.0.4.2
Cover : Yes

Video
ID : 1
Format : AVC
Format/Info : Advanced Video Codec
Format profile : Main@L4
Format settings : CABAC / 2 Ref Frames
Format settings, CABAC : Yes
Format settings, RefFrames : 2 frames
Format settings, GOP : M=1, N=24
Codec ID : avc1
Codec ID/Info : Advanced Video Coding
Duration : 2 h 44 min
Source duration : 2 h 44 min
Bit rate mode : Variable
Bit rate : 2 987 kb/s
Maximum bit rate : 4 624 kb/s
Width : 1 920 pixels
Height : 1 080 pixels
Display aspect ratio : 16:9
Frame rate mode : Constant
Frame rate : 23.976 (24000/1001) FPS
Color space : YUV
Chroma subsampling : 4:2:0
Bit depth : 8 bits
Scan type : Progressive
Bits/(Pixel*Frame) : 0.060
Stream size : 3.43 GiB (87%)
Source stream size : 3.43 GiB (87%)
Encoded date : UTC 2020-05-18 02:41:50
Tagged date : UTC 2020-05-18 02:58:17
Color primaries : BT.709
Transfer characteristics : BT.709
Matrix coefficients : BT.709

Audio
ID : 2
Format : AC-3
Format/Info : Audio Coding 3
Format settings, Endianness : Big
Codec ID : ac-3
Duration : 2 h 44 min
Bit rate mode : Constant
Bit rate : 448 kb/s
Channel(s) : 6 channels
Channel positions : Front: L C R, Side: L R, LFE
Sampling rate : 48.0 kHz
Frame rate : 31.250 FPS (1536 SPF)
Bit depth : 16 bits
Compression mode : Lossy
Stream size : 527 MiB (13%)
Title : English (ac3 5.1)
Language : English
Service kind : Complete Main
Default : Yes
Alternate group : 1
Encoded date : UTC 2020-05-18 02:41:50
Tagged date : UTC 2020-05-18 02:58:17

Text
ID : 3
Format : VobSub
Codec ID : mp4s-E0
Codec ID/Info : The same subtitle format used on DVDs
Duration : 2 h 35 min
Bit rate mode : Variable
Bit rate : 9 665 b/s
Maximum bit rate : 3 743 Mb/s
Stream size : 10.7 MiB (0%)
Language : English
Default : Yes
Forced : No
Alternate group : 2
Encoded date : UTC 2020-05-18 02:41:50
Tagged date : UTC 2020-05-18 02:57:26





The Dark Knight Rises (2012)


The Dark Knight Rises (2012)


The Dark Knight Rises (2012)


The Dark Knight Rises (2012)


The Dark Knight Rises (2012)