Tags
Language
Tags

The Dark Knight (2008)

Posted By: Tavaz
The Dark Knight (2008)

The Dark Knight (2008)
MKV | 1920x1080 | English | H264 @ 5224 kbps | Opus @ 245 kbps | 2 h 31 min | 5.80 GiB
Genre: Drama, Action, Crime, Thriller

Batman raises the stakes in his war on crime. With the help of Lt. Jim Gordon and District Attorney Harvey Dent, Batman sets out to dismantle the remaining criminal organizations that plague the streets. The partnership proves to be effective, but they soon find themselves prey to a reign of chaos unleashed by a rising criminal mastermind known to the terrified citizens of Gotham as the Joker.

6f335c40116e4840813c9aa0264b47cb.mkv (5.8 GB)



General
Complete name : ./6f335c40116e4840813c9aa0264b47cb.mkv
Format : Matroska
Format version : Version 4 / Version 2
File size : 5.80 GiB
Duration : 2 h 31 min
Overall bit rate : 5 473 kb/s
Encoded date : UTC 2019-04-24 01:49:38
Writing application : mkvmerge v29.0.0 ('Like It Or Not') 64-bit
Writing library : libebml v1.3.6 + libmatroska v1.4.9
Writing frontend : StaxRip v2.0.0.0

Video
ID : 1
Format : AVC
Format/Info : Advanced Video Codec
Format profile : High@L4
Format settings : CABAC / 3 Ref Frames
Format settings, CABAC : Yes
Format settings, RefFrames : 3 frames
Codec ID : V_MPEG4/ISO/AVC
Duration : 2 h 31 min
Bit rate : 5 225 kb/s
Width : 1 920 pixels
Height : 1 080 pixels
Display aspect ratio : 16:9
Frame rate mode : Constant
Frame rate : 23.976 (24000/1001) FPS
Color space : YUV
Chroma subsampling : 4:2:0
Bit depth : 8 bits
Scan type : Progressive
Bits/(Pixel*Frame) : 0.105
Stream size : 5.54 GiB (95%)
Default : Yes
Forced : No

Audio
ID : 2
Format : Opus
Codec ID : A_OPUS
Duration : 2 h 31 min
Bit rate : 246 kb/s
Channel(s) : 2 channels
Channel positions : Front: L R
Sampling rate : 48.0 kHz
Frame rate : 50.000 FPS (960 SPF)
Compression mode : Lossy
Stream size : 267 MiB (4%)
Language : English
Default : No
Forced : No





The Dark Knight (2008)


The Dark Knight (2008)


The Dark Knight (2008)


The Dark Knight (2008)


The Dark Knight (2008)