Please register here if you want to download anything!

If domain in your address bar is different from the list below
PLEASE LEAVE THAT SITE IMMEDIATELY
❗IT'S A DANGEROUS FAKE❗



Spicy Magazines for Men! ;-)

The Dead Pit (1989)

Posted By: Tavaz
720p (HD) / BDRip IMDb
The Dead Pit (1989)

The Dead Pit (1989)
BDRip | MKV | 1280x720 | English / English | H264 @ 5155 kbps | DTS @ 1509 kbps | 1 h 41 min | 4.79 GiB
Genre: Horror

A renegade doctor is shot dead and entombed with his fiendish experiments in the basement of an abandoned wing of a mental hospital.

8045bae6db7d4f8390b87121a70bb94b.mkv (4.8 GB)



General
Unique ID : 238206009928733741058101778885060477358 (0xB334CF09F1869170A00A1B23E07241AE)
Complete name : ./8045bae6db7d4f8390b87121a70bb94b.mkv
Format : Matroska
Format version : Version 4 / Version 2
File size : 4.79 GiB
Duration : 1 h 41 min
Overall bit rate mode : Variable
Overall bit rate : 6 742 kb/s
Encoded date : UTC 2019-08-14 12:48:17
Writing application : mkvmerge v9.5.0 ('Quiet Fire') 64bit
Writing library : libebml v1.3.4 + libmatroska v1.4.5 / Lavf58.20.100

Video
ID : 1
Format : AVC
Format/Info : Advanced Video Codec
Format profile : High@L4.1
Format settings : CABAC / 9 Ref Frames
Format settings, CABAC : Yes
Format settings, RefFrames : 9 frames
Codec ID : V_MPEG4/ISO/AVC
Duration : 1 h 41 min
Bit rate : 5 156 kb/s
Width : 1 280 pixels
Height : 720 pixels
Display aspect ratio : 16:9
Frame rate mode : Constant
Frame rate : 23.976 (24000/1001) FPS
Color space : YUV
Chroma subsampling : 4:2:0
Bit depth : 8 bits
Scan type : Progressive
Bits/(Pixel*Frame) : 0.233
Stream size : 3.66 GiB (76%)
Writing library : x264 core 157 r2935 545de2f
Encoding settings : cabac=1 / ref=9 / deblock=1:-3:-3 / analyse=0x3:0x133 / me=umh / subme=9 / psy=1 / psy_rd=1.00:0.00 / mixed_ref=1 / me_range=24 / chroma_me=1 / trellis=2 / 8x8dct=1 / cqm=0 / deadzone=21,11 / fast_pskip=0 / chroma_qp_offset=-2 / threads=6 / lookahead_threads=1 / sliced_threads=0 / nr=0 / decimate=1 / interlaced=0 / bluray_compat=0 / constrained_intra=0 / bframes=6 / b_pyramid=2 / b_adapt=2 / b_bias=0 / direct=3 / weightb=1 / open_gop=0 / weightp=2 / keyint=240 / keyint_min=24 / scenecut=40 / intra_refresh=0 / rc_lookahead=60 / rc=crf / mbtree=1 / crf=18.0 / qcomp=0.60 / qpmin=0 / qpmax=69 / qpstep=4 / vbv_maxrate=62500 / vbv_bufsize=78125 / crf_max=0.0 / nal_hrd=none / filler=0 / ip_ratio=1.40 / aq=1:1.00
Default : Yes
Forced : No
Color range : Limited
Color primaries : BT.709
Transfer characteristics : BT.709
Matrix coefficients : BT.709

Audio #1
ID : 2
Format : DTS
Format/Info : Digital Theater Systems
Mode : 16
Format settings, Endianness : Big
Codec ID : A_DTS
Duration : 1 h 41 min
Bit rate mode : Constant
Bit rate : 1 509 kb/s
Channel(s) : 2 channels
Channel positions : Front: L R
Sampling rate : 48.0 kHz
Frame rate : 93.750 FPS (512 SPF)
Bit depth : 24 bits
Compression mode : Lossy
Stream size : 1.07 GiB (22%)
Title : DTS 2.0 Audio
Language : English
Default : Yes
Forced : No

Audio #2
ID : 3
Format : Vorbis
Format settings, Floor : 1
Codec ID : A_VORBIS
Duration : 1 h 41 min
Bit rate mode : Variable
Bit rate : 96.0 kb/s
Channel(s) : 2 channels
Sampling rate : 48.0 kHz
Frame rate : 63.069 FPS (761 SPF)
Compression mode : Lossy
Delay relative to video : 6 s 0 ms
Stream size : 53.3 MiB (1%)
Title : Commentary with Director Brett Leonard, Actor Jeremy Slate, and Producer/Writer Gimel Everett
Writing application : HandBrake
Writing library : aoTuV 20110424 (UTC 2011-04-24)
Language : English
Default : No
Forced : No

Menu
00:00:00.000 : :Chapter 1
00:08:37.934 : :Chapter 2
00:16:34.869 : :Chapter 3
00:22:13.541 : :Chapter 4
00:28:01.221 : :Chapter 5
00:35:10.150 : :Chapter 6
00:41:31.489 : :Chapter 7
00:51:30.796 : :Chapter 8
00:57:23.315 : :Chapter 9
01:03:58.835 : :Chapter 10
01:13:06.299 : :Chapter 11
01:18:55.981 : :Chapter 12
01:25:54.483 : :Chapter 13
01:33:50.333 : :Chapter 14
01:38:57.515 : :Chapter 15





The Dead Pit (1989)


The Dead Pit (1989)


The Dead Pit (1989)


The Dead Pit (1989)


The Dead Pit (1989)