The Fate of the Furious (2017)

Posted By: Tavaz
2160p (4k UHD) / BDRip IMDb
The Fate of the Furious (2017)

The Fate of the Furious (2017)
BDRip | MKV | 3840x2160 | English | H265 @ 4956 kbps | AC-3 @ 640 kbps | 2 h 15 min | 5.35 GiB
Subtitles: Portuguese, Spanish, French, English
Genre: Action, Adventure, Crime, Thriller

When a mysterious woman seduces Dom into the world of crime and a betrayal of those closest to him, the crew face trials that will test them as never before.

2f6cf8bafce84b0f8e63cbd0cc2aec5e.mkv (5.3 GB)



General
Complete name : ./2f6cf8bafce84b0f8e63cbd0cc2aec5e.mkv
Format : Matroska
Format version : Version 4 / Version 2
File size : 5.35 GiB
Duration : 2 h 15 min
Overall bit rate : 5 629 kb/s
Encoded date : UTC 2018-02-27 06:42:28
Writing application : mkvmerge v20.0.0 ('I Am The Sun') 64-bit
Writing library : libebml v1.3.5 + libmatroska v1.4.8
Cover : Yes
Attachments : cover.jpg

Video
ID : 1
Format : HEVC
Format/Info : High Efficiency Video Coding
Format profile : Main 10@L5@Main
Codec ID : V_MPEGH/ISO/HEVC
Duration : 2 h 15 min
Bit rate : 4 957 kb/s
Width : 3 840 pixels
Height : 2 160 pixels
Display aspect ratio : 16:9
Frame rate mode : Constant
Frame rate : 23.976 (24000/1001) FPS
Color space : YUV
Chroma subsampling : 4:2:0
Bit depth : 10 bits
Bits/(Pixel*Frame) : 0.025
Stream size : 4.71 GiB (88%)
Title : [SGJ5-LorD]
Language : English
Default : Yes
Forced : No
Color range : Limited
Color primaries : BT.2020
Transfer characteristics : PQ
Matrix coefficients : BT.2020 non-constant

Audio
ID : 2
Format : AC-3
Format/Info : Audio Coding 3
Format settings, Endianness : Big
Codec ID : A_AC3
Duration : 2 h 15 min
Bit rate mode : Constant
Bit rate : 640 kb/s
Channel(s) : 6 channels
Channel positions : Front: L C R, Side: L R, LFE
Sampling rate : 48.0 kHz
Frame rate : 31.250 FPS (1536 SPF)
Bit depth : 16 bits
Compression mode : Lossy
Stream size : 622 MiB (11%)
Language : English
Service kind : Complete Main
Default : Yes
Forced : No

Text #1
ID : 3
Format : UTF-8
Codec ID : S_TEXT/UTF8
Codec ID/Info : UTF-8 Plain Text
Duration : 2 h 13 min
Bit rate : 46 b/s
Count of elements : 1538
Stream size : 46.0 KiB (0%)
Title : Brazilian
Language : Portuguese
Default : Yes
Forced : No

Text #2
ID : 4
Format : PGS
Muxing mode : zlib
Codec ID : S_HDMV/PGS
Codec ID/Info : Picture based subtitle format used on BDs/HD-DVDs
Duration : 2 h 4 min
Bit rate : 39.6 kb/s
Count of elements : 3568
Stream size : 35.1 MiB (1%)
Title : English (SDH)
Language : English
Default : No
Forced : No

Text #3
ID : 5
Format : PGS
Muxing mode : zlib
Codec ID : S_HDMV/PGS
Codec ID/Info : Picture based subtitle format used on BDs/HD-DVDs
Duration : 2 h 14 min
Bit rate : 29.5 kb/s
Count of elements : 3056
Stream size : 28.5 MiB (1%)
Title : Spanish (Latin American)
Language : Spanish
Default : No
Forced : No

Text #4
ID : 6
Format : PGS
Muxing mode : zlib
Codec ID : S_HDMV/PGS
Codec ID/Info : Picture based subtitle format used on BDs/HD-DVDs
Duration : 2 h 14 min
Bit rate : 29.6 kb/s
Count of elements : 3072
Stream size : 28.5 MiB (1%)
Title : French
Language : French
Default : No
Forced : No

Menu
00:00:00.000 : en:Chapter 01
00:13:08.913 : en:Chapter 02
00:20:30.771 : en:Chapter 03
00:26:38.638 : en:Chapter 04
00:32:26.778 : en:Chapter 05
00:36:40.573 : en:Chapter 06
00:43:35.613 : en:Chapter 07
00:47:45.779 : en:Chapter 08
00:56:00.732 : en:Chapter 09
01:04:08.302 : en:Chapter 10
01:09:08.060 : en:Chapter 11
01:13:24.274 : en:Chapter 12
01:21:25.714 : en:Chapter 13
01:29:29.947 : en:Chapter 14
01:35:12.456 : en:Chapter 15
01:39:55.781 : en:Chapter 16
01:45:00.711 : en:Chapter 17
01:53:01.858 : en:Chapter 18
02:01:51.262 : en:Chapter 19
02:06:45.097 : en:Chapter 20





The Fate of the Furious (2017)


The Fate of the Furious (2017)


The Fate of the Furious (2017)


The Fate of the Furious (2017)


The Fate of the Furious (2017)