Tags
Language
Tags

The Ghost Writer (2010)

Posted By: Tavaz
1080p (FullHD) / BDRip IMDb
The Ghost Writer (2010)

The Ghost Writer (2010)
BDRip | MKV | 1920x820 | English | H264 @ 10633 kbps | DTS @ 1509 kbps | 2 h 8 min | 10.9 GiB
Genre: Mystery, Thriller

A writer stumbles upon a long-hidden secret when he agrees to help former British Prime Minister Adam Lang complete his memoirs on a remote island after the politician's assistant drowns in a mysterious accident. In director Roman Polanski's tense drama, the author realizes that his discovery threatens some very powerful people who will do anything to ensure that certain episodes from Lang's past remain buried.

The.Ghost.Writer.2010.BluRay.1080p.DTS.x264-CHD=52a6db3c162d4d58b7442c331a011dca472218d3.part1.rar (5.7 GB)
The.Ghost.Writer.2010.BluRay.1080p.DTS.x264-CHD=52a6db3c162d4d58b7442c331a011dca472218d3.part2.rar (5.3 GB)



General
Unique ID : 189258742983854942911855133058766728689 (0x8E61E874FAD1290E90BD70D5C717EDF1)
Complete name : ./The.Ghost.Writer.2010.BluRay.1080p.DTS.x264-CHD.mkv
Format : Matroska
Format version : Version 2
File size : 10.9 GiB
Duration : 2 h 8 min
Overall bit rate : 12.1 Mb/s
Encoded date : UTC 2010-07-21 06:46:03
Writing application : mkvmerge v4.0.0 ('The Stars were mine') built on Jun 6 2010 16:18:42
Writing library : libebml v1.0.0 + libmatroska v1.0.0

Video
ID : 1
Format : AVC
Format/Info : Advanced Video Codec
Format profile : High@L4.1
Format settings : CABAC / 5 Ref Frames
Format settings, CABAC : Yes
Format settings, RefFrames : 5 frames
Codec ID : V_MPEG4/ISO/AVC
Duration : 2 h 8 min
Bit rate : 10.6 Mb/s
Width : 1 920 pixels
Height : 820 pixels
Display aspect ratio : 2.35:1
Frame rate mode : Constant
Frame rate : 23.976 FPS
Color space : YUV
Chroma subsampling : 4:2:0
Bit depth : 8 bits
Scan type : Progressive
Bits/(Pixel*Frame) : 0.282
Stream size : 9.33 GiB (86%)
Title : The.Ghost.Writer.2010.BluRay.1080p.DTS.x264-CHD
Writing library : x264 core 88 r1471 1144615
Encoding settings : cabac=1 / ref=5 / deblock=1:-3:-3 / analyse=0x3:0x113 / me=umh / subme=10 / psy=1 / psy_rd=1.05:0.10 / mixed_ref=1 / me_range=48 / chroma_me=1 / trellis=2 / 8x8dct=1 / cqm=0 / deadzone=21,11 / fast_pskip=0 / chroma_qp_offset=-2 / threads=12 / sliced_threads=0 / nr=0 / decimate=1 / mbaff=0 / constrained_intra=0 / bframes=4 / b_pyramid=2 / b_adapt=2 / b_bias=0 / direct=3 / wpredb=1 / wpredp=2 / keyint=250 / keyint_min=25 / scenecut=40 / intra_refresh=0 / rc_lookahead=60 / rc=2pass / mbtree=1 / bitrate=10633 / ratetol=2.0 / qcomp=0.70 / qpmin=10 / qpmax=51 / qpstep=4 / cplxblur=20.0 / qblur=0.5 / vbv_maxrate=50000 / vbv_bufsize=50000 / ip_ratio=1.40 / aq=1:1.00
Language : English
Default : Yes
Forced : No

Audio
ID : 2
Format : DTS
Format/Info : Digital Theater Systems
Mode : 16
Format settings, Endianness : Big
Codec ID : A_DTS
Duration : 2 h 8 min
Bit rate mode : Constant
Bit rate : 1 509 kb/s
Channel(s) : 6 channels
Channel positions : Front: L C R, Side: L R, LFE
Sampling rate : 48.0 kHz
Frame rate : 93.750 FPS (512 SPF)
Bit depth : 24 bits
Compression mode : Lossy
Stream size : 1.35 GiB (12%)
Title : DTS-HDMA core 5.1CH 1509kbps
Language : English
Default : Yes
Forced : No





The Ghost Writer (2010)


The Ghost Writer (2010)


The Ghost Writer (2010)


The Ghost Writer (2010)


The Ghost Writer (2010)