Tags
Language
Tags

The Great Sioux Massacre (1965)

Posted By: Tavaz
1080p (FullHD) / WEB-DL IMDb
The Great Sioux Massacre (1965)

The Great Sioux Massacre (1965)
WEB-DL | MKV | 1920x1080 | English | H264 @ 13321 kbps | E-AC-3 @ 224 kbps | 1 h 41 min | 9.63 GiB
Subtitles: English
Genre: Drama, History, Western

Colonel Custer (Philip Carey), an outspoken believer in fair treatment for the Indians, is ousted from his post and forced into retirement. Fueled by ambition when a Senator Blaine (Don Haggerty) convinces him to run for President, Custer decides to upstage General Terry (Frank Ferguson) at Little Big Horn.

The.Great.Sioux.Massacre.1965.1080p.AMZN.WEB-DL.DDP2.0.H.264-SiGMA=ae8285048aacdd4023aebfce5e7a2094ed8b5508.part1.rar (5.1 GB)
The.Great.Sioux.Massacre.1965.1080p.AMZN.WEB-DL.DDP2.0.H.264-SiGMA=ae8285048aacdd4023aebfce5e7a2094ed8b5508.part2.rar (4.7 GB)



General
Complete name : ./22b5c890570a4de9bfd32eb01dd109ed.mkv
Format : Matroska
Format version : Version 4 / Version 2
File size : 9.63 GiB
Duration : 1 h 41 min
Overall bit rate mode : Variable
Overall bit rate : 13.5 Mb/s
Encoded date : UTC 2019-01-26 22:37:06
Writing application : mkvmerge v30.1.0 ('Forever And More') 64-bit
Writing library : libebml v1.3.6 + libmatroska v1.4.9

Video
ID : 1
Format : AVC
Format/Info : Advanced Video Codec
Format profile : High@L4
Format settings : CABAC / 4 Ref Frames
Format settings, CABAC : Yes
Format settings, RefFrames : 4 frames
Codec ID : V_MPEG4/ISO/AVC
Duration : 1 h 41 min
Bit rate mode : Variable
Bit rate : 13.3 Mb/s
Maximum bit rate : 15.0 Mb/s
Width : 1 920 pixels
Height : 1 080 pixels
Display aspect ratio : 16:9
Frame rate mode : Constant
Frame rate : 23.976 (24000/1001) FPS
Color space : YUV
Chroma subsampling : 4:2:0
Bit depth : 8 bits
Scan type : Progressive
Bits/(Pixel*Frame) : 0.268
Stream size : 9.47 GiB (98%)
Default : Yes
Forced : No
Color range : Limited
Color primaries : BT.709
Transfer characteristics : BT.709
Matrix coefficients : BT.709

Audio
ID : 2
Format : E-AC-3
Format/Info : Enhanced Audio Coding 3
Format settings, Endianness : Big
Codec ID : A_EAC3
Duration : 1 h 41 min
Bit rate mode : Constant
Bit rate : 224 kb/s
Channel(s) : 2 channels
Channel positions : Front: L R
Sampling rate : 48.0 kHz
Frame rate : 187.500 FPS (256 SPF)
Compression mode : Lossy
Stream size : 163 MiB (2%)
Language : English
Service kind : Complete Main
Default : Yes
Forced : No

Text
ID : 3
Format : UTF-8
Codec ID : S_TEXT/UTF8
Codec ID/Info : UTF-8 Plain Text
Duration : 1 h 41 min
Bit rate : 55 b/s
Count of elements : 1345
Stream size : 41.3 KiB (0%)
Title : English (SDH)
Language : English
Default : No
Forced : No





The Great Sioux Massacre (1965)


The Great Sioux Massacre (1965)


The Great Sioux Massacre (1965)


The Great Sioux Massacre (1965)


The Great Sioux Massacre (1965)