The Hills Have Eyes 2 (2007)

Posted By: Tavaz
SD / DVDRip IMDb
The Hills Have Eyes 2 (2007)

The Hills Have Eyes 2 (2007)
DVDRip | AVI | 608x336 | MP4V-ES @ 981 kbps | MPEG Audio @ 136 kbps | 1 h 26 min | 700 MiB
Genre: Horror, Thriller

Die Mutanten-Sippe hat die Ereignisse des ersten Teils teilweise überlebt doch innerhalb der inzestuösen Familie entstehen schwerwiegende Probleme: Gebärfähige Frauen müssen her um dem Clan Nachwuchs zu schenken und den Fortbestand zu sichern. Zu dieser Zeit entsendet die Nationalgarde einen Trupp in die Wüste New Mexicos; dieser findet den dortigen Posten menschenleer vor. Ein merkwürdiges Notsignal veranlasst die Soldaten sich auf die Suche zu machen und die Situation aufzuklären. Das sich unter den Soldaten auch gesunde junge Frauen befinden trifft sich gut für die kannibalischen Wüstenbewohner. Aus der eigentlichen Übung für die Soldaten entwickelt sich ein erbarmungsloser Kampf auf Leben und Tod.

etm-hher2x.avi (699.9 MB)
etm-hher2x-sample.avi (10.7 MB)



General
Complete name : ./The.Hills.Have.Eyes.2.UNCUT.German.1985.RETAiL.DVDRiP.XviD-ETM/etm-hher2x.avi
Format : AVI
Format/Info : Audio Video Interleave
File size : 700 MiB
Duration : 1 h 26 min
Overall bit rate mode : Variable
Overall bit rate : 1 132 kb/s
Writing application : VirtualDubMod 1.5.10.2 (build 2540/release)
Writing library : VirtualDubMod build 2540/release

Video
ID : 0
Format : MPEG-4 Visual
Format profile : Advanced Simple@L5
Format settings : BVOP2
Format settings, BVOP : 2
Format settings, QPel : No
Format settings, GMC : No warppoints
Format settings, Matrix : Default (H.263)
Codec ID : XVID
Codec ID/Hint : XviD
Duration : 1 h 26 min
Bit rate : 982 kb/s
Width : 608 pixels
Height : 336 pixels
Display aspect ratio : 16:9
Frame rate : 25.000 FPS
Color space : YUV
Chroma subsampling : 4:2:0
Bit depth : 8 bits
Scan type : Progressive
Compression mode : Lossy
Bits/(Pixel*Frame) : 0.192
Stream size : 607 MiB (87%)
Writing library : XviD 1.0.3 (UTC 2004-12-20)

Audio
ID : 1
Format : MPEG Audio
Format version : Version 1
Format profile : Layer 3
Format settings : Joint stereo / MS Stereo
Mode : Joint stereo
Mode extension : MS Stereo
Codec ID : 55
Codec ID/Hint : MP3
Duration : 1 h 26 min
Bit rate mode : Variable
Bit rate : 137 kb/s
Nominal bit rate : 128 kb/s
Channel(s) : 2 channels
Sampling rate : 48.0 kHz
Compression mode : Lossy
Stream size : 84.6 MiB (12%)
Alignment : Aligned on interleaves
Interleave, duration : 24 ms (0.60 video frame)
Interleave, preload duration : 482 ms
Writing library : LAME3.90.
Encoding settings : -m j -V 4 -q 2 -lowpass 17.6 –abr 128





The Hills Have Eyes 2 (2007)


The Hills Have Eyes 2 (2007)


The Hills Have Eyes 2 (2007)


The Hills Have Eyes 2 (2007)


The Hills Have Eyes 2 (2007)