The Hills Have Eyes (2006)

Posted By: Tavaz
1080p (FullHD) / BDRip IMDb
The Hills Have Eyes (2006)

The Hills Have Eyes (2006)
BDRip | MKV | 1920x816 | English | H264 @ 9848 kbps | AC-3 @ 640 kbps | 1 h 48 min | 7.95 GiB
Genre: Horror, Thriller

Based on Wes Craven's 1977 suspenseful cult classic, The Hills Have Eyes is the story of a family road trip that goes terrifyingly awry when the travelers become stranded in a government atomic zone. Miles from nowhere, the Carter family soon realizes the seemingly uninhabited wasteland is actually the breeding ground of a blood-thirsty mutant family…and they are the prey.

5feabab9d0f24cc6a17ef0fa3ab8dca8.mkv (7.9 GB)



General
Complete name : ./5feabab9d0f24cc6a17ef0fa3ab8dca8.mkv
Format : Matroska
Format version : Version 1
File size : 7.95 GiB
Duration : 1 h 48 min
Overall bit rate : 10.5 Mb/s
Encoded date : UTC 2008-06-22 15:10:30
Writing application : mkvmerge v2.1.0 ('Another Place To Fall') built on Aug 19 2007 13:40:07
Writing library : libebml v0.7.7 + libmatroska v0.8.1

Video
ID : 1
Format : AVC
Format/Info : Advanced Video Codec
Format profile : High@L5.1
Format settings : CABAC / 5 Ref Frames
Format settings, CABAC : Yes
Format settings, RefFrames : 5 frames
Codec ID : V_MPEG4/ISO/AVC
Duration : 1 h 48 min
Bit rate : 9 848 kb/s
Width : 1 920 pixels
Height : 816 pixels
Display aspect ratio : 2.35:1
Frame rate mode : Constant
Frame rate : 23.976 FPS
Color space : YUV
Chroma subsampling : 4:2:0
Bit depth : 8 bits
Scan type : Progressive
Bits/(Pixel*Frame) : 0.262
Stream size : 7.30 GiB (92%)
Title : The.Hills.Have.Eyes
Writing library : x264 core 60 r886M 1075536
Encoding settings : cabac=1 / ref=5 / deblock=1:0:0 / analyse=0x3:0x133 / me=umh / subme=7 / rdcmp=psy / brdo=1 / mixed_ref=1 / me_range=12 / chroma_me=1 / trellis=1 / 8x8dct=1 / cqm=0 / deadzone=21,11 / chroma_qp_offset=0 / threads=6 / nr=0 / decimate=1 / mbaff=0 / bframes=3 / b_pyramid=1 / b_adapt=1 / b_bias=0 / direct=3 / wpredb=1 / bime=1 / keyint=240 / keyint_min=24 / scenecut=40(pre) / rc=2pass / bitrate=9848 / ratetol=1.0 / rceq='blurCplx^(1-qComp)' / qcomp=1.00 / qpmin=10 / qpmax=51 / qpstep=4 / cplxblur=20.0 / qblur=0.5 / ip_ratio=1.40 / pb_ratio=1.30 / aq=2:1.00
Language : English
Default : Yes
Forced : No

Audio
ID : 2
Format : AC-3
Format/Info : Audio Coding 3
Format settings, Endianness : Big
Codec ID : A_AC3
Duration : 1 h 48 min
Bit rate mode : Constant
Bit rate : 640 kb/s
Channel(s) : 6 channels
Channel positions : Front: L C R, Side: L R, LFE
Sampling rate : 48.0 kHz
Frame rate : 31.250 FPS (1536 SPF)
Bit depth : 16 bits
Compression mode : Lossy
Stream size : 496 MiB (6%)
Title : English
Language : English
Service kind : Complete Main
Default : Yes
Forced : No

Menu
00:00:00.000 : en:00:02:26.729
00:04:42.740 : en:00:08:51.906
00:16:46.088 : en:00:19:36.008
00:25:38.036 : en:00:28:26.287
00:34:26.856 : en:00:37:44.845
00:43:49.585 : en:00:49:34.721
01:00:03.266 : en:01:02:46.387
01:07:57.323 : en:01:13:33.659
01:16:48.687 : en:01:20:29.032
01:24:36.029 : en:01:28:07.865
01:32:57.321 : en:01:37:40.145
01:42:06.912 : en:01:44:19.461





The Hills Have Eyes (2006)


The Hills Have Eyes (2006)


The Hills Have Eyes (2006)


The Hills Have Eyes (2006)


The Hills Have Eyes (2006)